  0
SECTION
  2
HEADER
  9
$ACADVER
  1
AC1027
  9
$ACADMAINTVER
 70
   125
  9
$DWGCODEPAGE
  3
ANSI_1251
  9
$LASTSAVEDBY
  1
OlegBond
  9
$REQUIREDVERSIONS
160
                 0
  9
$INSBASE
 10
0.0
 20
0.0
 30
0.0
  9
$EXTMIN
 10
61.68816966801981
 20
54.43016750507149
 30
0.0
  9
$EXTMAX
 10
705.7290361431435
 20
166.5691333876341
 30
0.0
  9
$LIMMIN
 10
0.0
 20
0.0
  9
$LIMMAX
 10
431.7999999999999
 20
279.4
  9
$ORTHOMODE
 70
     0
  9
$REGENMODE
 70
     1
  9
$FILLMODE
 70
     1
  9
$QTEXTMODE
 70
     0
  9
$MIRRTEXT
 70
     1
  9
$LTSCALE
 40
1.0
  9
$ATTMODE
 70
     1
  9
$TEXTSIZE
 40
3.5
  9
$TRACEWID
 40
1.0
  9
$TEXTSTYLE
  7
SLDTEXTSTYLE0
  9
$CLAYER
  8
размеры
  9
$CELTYPE
  6
ByLayer
  9
$CECOLOR
 62
   256
  9
$CELTSCALE
 40
1.0
  9
$DISPSILH
 70
     0
  9
$DIMSCALE
 40
1.0
  9
$DIMASZ
 40
2.5
  9
$DIMEXO
 40
0.625
  9
$DIMDLI
 40
3.75
  9
$DIMRND
 40
0.0
  9
$DIMDLE
 40
0.0
  9
$DIMEXE
 40
1.25
  9
$DIMTP
 40
0.0
  9
$DIMTM
 40
0.0
  9
$DIMTXT
 40
2.5
  9
$DIMCEN
 40
2.5
  9
$DIMTSZ
 40
0.0
  9
$DIMTOL
 70
     0
  9
$DIMLIM
 70
     0
  9
$DIMTIH
 70
     0
  9
$DIMTOH
 70
     0
  9
$DIMSE1
 70
     0
  9
$DIMSE2
 70
     0
  9
$DIMTAD
 70
     1
  9
$DIMZIN
 70
     8
  9
$DIMBLK
  1

  9
$DIMASO
 70
     1
  9
$DIMSHO
 70
     1
  9
$DIMPOST
  1

  9
$DIMAPOST
  1

  9
$DIMALT
 70
     0
  9
$DIMALTD
 70
     3
  9
$DIMALTF
 40
0.03937007874016
  9
$DIMLFAC
 40
1.0
  9
$DIMTOFL
 70
     1
  9
$DIMTVP
 40
0.0
  9
$DIMTIX
 70
     0
  9
$DIMSOXD
 70
     0
  9
$DIMSAH
 70
     0
  9
$DIMBLK1
  1

  9
$DIMBLK2
  1

  9
$DIMSTYLE
  2
ISO-25
  9
$DIMCLRD
 70
     0
  9
$DIMCLRE
 70
     0
  9
$DIMCLRT
 70
     0
  9
$DIMTFAC
 40
1.0
  9
$DIMGAP
 40
0.625
  9
$DIMJUST
 70
     0
  9
$DIMSD1
 70
     0
  9
$DIMSD2
 70
     0
  9
$DIMTOLJ
 70
     0
  9
$DIMTZIN
 70
     8
  9
$DIMALTZ
 70
     0
  9
$DIMALTTZ
 70
     0
  9
$DIMUPT
 70
     0
  9
$DIMDEC
 70
     2
  9
$DIMTDEC
 70
     2
  9
$DIMALTU
 70
     2
  9
$DIMALTTD
 70
     3
  9
$DIMTXSTY
  7
Standard
  9
$DIMAUNIT
 70
     0
  9
$DIMADEC
 70
     0
  9
$DIMALTRND
 40
0.0
  9
$DIMAZIN
 70
     0
  9
$DIMDSEP
 70
    44
  9
$DIMATFIT
 70
     3
  9
$DIMFRAC
 70
     0
  9
$DIMLDRBLK
  1

  9
$DIMLUNIT
 70
     2
  9
$DIMLWD
 70
    -2
  9
$DIMLWE
 70
    -2
  9
$DIMTMOVE
 70
     0
  9
$DIMFXL
 40
1.0
  9
$DIMFXLON
 70
     0
  9
$DIMJOGANG
 40
0.7853981633974483
  9
$DIMTFILL
 70
     0
  9
$DIMTFILLCLR
 70
     0
  9
$DIMARCSYM
 70
     0
  9
$DIMLTYPE
  6

  9
$DIMLTEX1
  6

  9
$DIMLTEX2
  6

  9
$DIMTXTDIRECTION
 70
     0
  9
$LUNITS
 70
     2
  9
$LUPREC
 70
     4
  9
$SKETCHINC
 40
1.0
  9
$FILLETRAD
 40
10.0
  9
$AUNITS
 70
     0
  9
$AUPREC
 70
     2
  9
$MENU
  1
.
  9
$ELEVATION
 40
0.0
  9
$PELEVATION
 40
0.0
  9
$THICKNESS
 40
0.0
  9
$LIMCHECK
 70
     0
  9
$CHAMFERA
 40
0.0
  9
$CHAMFERB
 40
0.0
  9
$CHAMFERC
 40
0.0
  9
$CHAMFERD
 40
0.0
  9
$SKPOLY
 70
     0
  9
$TDCREATE
 40
2459523.683807871
  9
$TDUCREATE
 40
2459523.600483866
  9
$TDUPDATE
 40
2459628.617395833
  9
$TDUUPDATE
 40
2459628.534062500
  9
$TDINDWG
 40
0.0133101968
  9
$TDUSRTIMER
 40
0.0133101968
  9
$USRTIMER
 70
     1
  9
$ANGBASE
 50
0.0
  9
$ANGDIR
 70
     0
  9
$PDMODE
 70
     0
  9
$PDSIZE
 40
-1.0
  9
$PLINEWID
 40
0.0
  9
$SPLFRAME
 70
     0
  9
$SPLINETYPE
 70
     6
  9
$SPLINESEGS
 70
     8
  9
$HANDSEED
  5
BC6
  9
$SURFTAB1
 70
     6
  9
$SURFTAB2
 70
     6
  9
$SURFTYPE
 70
     6
  9
$SURFU
 70
     6
  9
$SURFV
 70
     6
  9
$UCSBASE
  2

  9
$UCSNAME
  2

  9
$UCSORG
 10
0.0
 20
0.0
 30
0.0
  9
$UCSXDIR
 10
1.0
 20
0.0
 30
0.0
  9
$UCSYDIR
 10
0.0
 20
1.0
 30
0.0
  9
$UCSORTHOREF
  2

  9
$UCSORTHOVIEW
 70
     0
  9
$UCSORGTOP
 10
0.0
 20
0.0
 30
0.0
  9
$UCSORGBOTTOM
 10
0.0
 20
0.0
 30
0.0
  9
$UCSORGLEFT
 10
0.0
 20
0.0
 30
0.0
  9
$UCSORGRIGHT
 10
0.0
 20
0.0
 30
0.0
  9
$UCSORGFRONT
 10
0.0
 20
0.0
 30
0.0
  9
$UCSORGBACK
 10
0.0
 20
0.0
 30
0.0
  9
$PUCSBASE
  2

  9
$PUCSNAME
  2

  9
$PUCSORG
 10
0.0
 20
0.0
 30
0.0
  9
$PUCSXDIR
 10
1.0
 20
0.0
 30
0.0
  9
$PUCSYDIR
 10
0.0
 20
1.0
 30
0.0
  9
$PUCSORTHOREF
  2

  9
$PUCSORTHOVIEW
 70
     0
  9
$PUCSORGTOP
 10
0.0
 20
0.0
 30
0.0
  9
$PUCSORGBOTTOM
 10
0.0
 20
0.0
 30
0.0
  9
$PUCSORGLEFT
 10
0.0
 20
0.0
 30
0.0
  9
$PUCSORGRIGHT
 10
0.0
 20
0.0
 30
0.0
  9
$PUCSORGFRONT
 10
0.0
 20
0.0
 30
0.0
  9
$PUCSORGBACK
 10
0.0
 20
0.0
 30
0.0
  9
$USERI1
 70
     0
  9
$USERI2
 70
     0
  9
$USERI3
 70
     0
  9
$USERI4
 70
     0
  9
$USERI5
 70
     0
  9
$USERR1
 40
0.0
  9
$USERR2
 40
0.0
  9
$USERR3
 40
0.0
  9
$USERR4
 40
0.0
  9
$USERR5
 40
0.0
  9
$WORLDVIEW
 70
     1
  9
$SHADEDGE
 70
     3
  9
$SHADEDIF
 70
    70
  9
$TILEMODE
 70
     1
  9
$MAXACTVP
 70
    64
  9
$PINSBASE
 10
0.0
 20
0.0
 30
0.0
  9
$PLIMCHECK
 70
     0
  9
$PEXTMIN
 10
1.000000000000000E+20
 20
1.000000000000000E+20
 30
1.000000000000000E+20
  9
$PEXTMAX
 10
-1.000000000000000E+20
 20
-1.000000000000000E+20
 30
-1.000000000000000E+20
  9
$PLIMMIN
 10
0.0
 20
0.0
  9
$PLIMMAX
 10
420.0
 20
297.0
  9
$UNITMODE
 70
     0
  9
$VISRETAIN
 70
     1
  9
$PLINEGEN
 70
     0
  9
$PSLTSCALE
 70
     1
  9
$TREEDEPTH
 70
  3020
  9
$CMLSTYLE
  2
Standard
  9
$CMLJUST
 70
     0
  9
$CMLSCALE
 40
20.0
  9
$PROXYGRAPHICS
 70
     1
  9
$MEASUREMENT
 70
     1
  9
$CELWEIGHT
370
    -1
  9
$ENDCAPS
280
     0
  9
$JOINSTYLE
280
     0
  9
$LWDISPLAY
290
     1
  9
$INSUNITS
 70
     4
  9
$HYPERLINKBASE
  1

  9
$STYLESHEET
  1

  9
$XEDIT
290
     1
  9
$CEPSNTYPE
380
     0
  9
$PSTYLEMODE
290
     1
  9
$FINGERPRINTGUID
  2
{f5491a74-fc9b-4d86-96e7-c0df63a696c1}
  9
$VERSIONGUID
  2
{6AC354B3-2FAF-6D4A-A920-DCAC78FCEB63}
  9
$EXTNAMES
290
     1
  9
$PSVPSCALE
 40
0.0
  9
$OLESTARTUP
290
     0
  9
$SORTENTS
280
   127
  9
$INDEXCTL
280
     0
  9
$HIDETEXT
280
     0
  9
$XCLIPFRAME
280
     2
  9
$HALOGAP
280
     0
  9
$OBSCOLOR
 70
   257
  9
$OBSLTYPE
280
     0
  9
$INTERSECTIONDISPLAY
280
     0
  9
$INTERSECTIONCOLOR
 70
   257
  9
$DIMASSOC
280
     1
  9
$PROJECTNAME
  1

  9
$CAMERADISPLAY
290
     0
  9
$LENSLENGTH
 40
50.0
  9
$CAMERAHEIGHT
 40
0.0
  9
$STEPSPERSEC
 40
2.0
  9
$STEPSIZE
 40
6.0
  9
$3DDWFPREC
 40
2.0
  9
$PSOLWIDTH
 40
0.25
  9
$PSOLHEIGHT
 40
4.0
  9
$LOFTANG1
 40
1.570796326794896
  9
$LOFTANG2
 40
1.570796326794896
  9
$LOFTMAG1
 40
0.0
  9
$LOFTMAG2
 40
0.0
  9
$LOFTPARAM
 70
     7
  9
$LOFTNORMALS
280
     1
  9
$LATITUDE
 40
37.795
  9
$LONGITUDE
 40
-122.394
  9
$NORTHDIRECTION
 40
0.0
  9
$TIMEZONE
 70
 -8000
  9
$LIGHTGLYPHDISPLAY
280
     1
  9
$TILEMODELIGHTSYNCH
280
     1
  9
$CMATERIAL
347
996
  9
$SOLIDHIST
280
     0
  9
$SHOWHIST
280
     1
  9
$DWFFRAME
280
     2
  9
$DGNFRAME
280
     0
  9
$REALWORLDSCALE
290
     1
  9
$INTERFERECOLOR
 62
     1
  9
$INTERFEREOBJVS
345
9B8
  9
$INTERFEREVPVS
346
9B5
  9
$CSHADOW
280
     0
  9
$SHADOWPLANELOCATION
 40
0.0
  0
ENDSEC
  0
SECTION
  2
CLASSES
  0
CLASS
  1
ACDBDICTIONARYWDFLT
  2
AcDbDictionaryWithDefault
  3
ObjectDBX Classes
 90
        0
 91
        1
280
     0
281
     0
  0
CLASS
  1
VISUALSTYLE
  2
AcDbVisualStyle
  3
ObjectDBX Classes
 90
     4095
 91
       24
280
     0
281
     0
  0
CLASS
  1
MATERIAL
  2
AcDbMaterial
  3
ObjectDBX Classes
 90
     1153
 91
        3
280
     0
281
     0
  0
CLASS
  1
SCALE
  2
AcDbScale
  3
ObjectDBX Classes
 90
     1153
 91
       33
280
     0
281
     0
  0
CLASS
  1
TABLESTYLE
  2
AcDbTableStyle
  3
ObjectDBX Classes
 90
     4095
 91
        1
280
     0
281
     0
  0
CLASS
  1
MLEADERSTYLE
  2
AcDbMLeaderStyle
  3
ACDB_MLEADERSTYLE_CLASS
 90
     4095
 91
        1
280
     0
281
     0
  0
CLASS
  1
SUN
  2
AcDbSun
  3
SCENEOE
 90
     1153
 91
        0
280
     0
281
     0
  0
CLASS
  1
ACDBSECTIONVIEWSTYLE
  2
AcDbSectionViewStyle
  3
ObjectDBX Classes
 90
     1025
 91
        1
280
     0
281
     0
  0
CLASS
  1
ACDBDETAILVIEWSTYLE
  2
AcDbDetailViewStyle
  3
ObjectDBX Classes
 90
     1025
 91
        1
280
     0
281
     0
  0
CLASS
  1
DICTIONARYVAR
  2
AcDbDictionaryVar
  3
ObjectDBX Classes
 90
        0
 91
       11
280
     0
281
     0
  0
CLASS
  1
SORTENTSTABLE
  2
AcDbSortentsTable
  3
ObjectDBX Classes
 90
        0
 91
        1
280
     0
281
     0
  0
CLASS
  1
CELLSTYLEMAP
  2
AcDbCellStyleMap
  3
ObjectDBX Classes
 90
     1152
 91
        1
280
     0
281
     0
  0
ENDSEC
  0
SECTION
  2
TABLES
  0
TABLE
  2
VPORT
  5
8
330
0
100
AcDbSymbolTable
 70
     1
1001
ACAD
1000
DbSaveVer
1071
        8
  0
VPORT
  5
29
330
8
100
AcDbSymbolTableRecord
100
AcDbViewportTableRecord
  2
*Active
 70
     0
 10
0.0
 20
0.0
 11
1.0
 21
1.0
 12
445.5639881908787
 22
39.86194166668904
 13
0.0
 23
0.0
 14
10.0
 24
10.0
 15
10.0
 25
10.0
 16
0.0
 26
0.0
 36
1.0
 17
0.0
 27
0.0
 37
0.0
 40
498.156476280324
 41
2.407313997477932
 42
50.0
 43
0.0
 44
0.0
 50
0.0
 51
0.0
 71
     0
 72
  2000
 73
     1
 74
     3
 75
     0
 76
     0
 77
     0
 78
     0
281
     0
 65
     1
110
0.0
120
0.0
130
0.0
111
1.0
121
0.0
131
0.0
112
0.0
122
1.0
132
0.0
 79
     0
146
0.0
348
9B4
 60
     3
 61
     5
292
     1
282
     1
141
0.0
142
0.0
 63
   250
421
  3355443
1001
ACAD_NAV_VCDISPLAY
1070
     3
  0
ENDTAB
  0
TABLE
  2
LTYPE
  5
5
330
0
100
AcDbSymbolTable
 70
     6
  0
LTYPE
  5
14
330
5
100
AcDbSymbolTableRecord
100
AcDbLinetypeTableRecord
  2
ByBlock
 70
     0
  3

 72
    65
 73
     0
 40
0.0
  0
LTYPE
  5
15
330
5
100
AcDbSymbolTableRecord
100
AcDbLinetypeTableRecord
  2
ByLayer
 70
     0
  3

 72
    65
 73
     0
 40
0.0
  0
LTYPE
  5
16
330
5
100
AcDbSymbolTableRecord
100
AcDbLinetypeTableRecord
  2
Continuous
 70
     0
  3
Solid line
 72
    65
 73
     0
 40
0.0
  0
LTYPE
  5
6E
330
5
100
AcDbSymbolTableRecord
100
AcDbLinetypeTableRecord
  2
HIDDEN
 70
     0
  3
Hidden __ __ __ __ __ __ __ __ __ __ __ __ __ __
 72
    65
 73
     2
 40
1.905
 49
1.27
 74
     0
 49
-0.635
 74
     0
  0
LTYPE
  5
6F
330
5
100
AcDbSymbolTableRecord
100
AcDbLinetypeTableRecord
  2
PHANTOM
 70
     0
  3
Phantom ______  __  __  ______  __  __  ______
 72
    65
 73
     6
 40
12.7
 49
6.349999999999999
 74
     0
 49
-1.27
 74
     0
 49
1.27
 74
     0
 49
-1.27
 74
     0
 49
1.27
 74
     0
 49
-1.27
 74
     0
  0
LTYPE
  5
70
330
5
100
AcDbSymbolTableRecord
100
AcDbLinetypeTableRecord
  2
CENTER
 70
     0
  3
Center ____ _ ____ _ ____ _ ____ _ ____ _ ____
 72
    65
 73
     4
 40
10.16
 49
6.349999999999999
 74
     0
 49
-1.27
 74
     0
 49
1.27
 74
     0
 49
-1.27
 74
     0
  0
LTYPE
  5
71
330
5
100
AcDbSymbolTableRecord
100
AcDbLinetypeTableRecord
  2
CENTERX2
 70
     0
  3
Center (2x) ________  __  ________  __  _____
 72
    65
 73
     4
 40
20.32
 49
12.7
 74
     0
 49
-2.54
 74
     0
 49
2.54
 74
     0
 49
-2.54
 74
     0
  0
LTYPE
  5
72
330
5
100
AcDbSymbolTableRecord
100
AcDbLinetypeTableRecord
  2
DOT2
 70
     0
  3
Dot (.5x) ........................................
 72
    65
 73
     2
 40
0.635
 49
0.0
 74
     0
 49
-0.635
 74
     0
  0
ENDTAB
  0
TABLE
  2
LAYER
  5
2
102
{ACAD_XDICTIONARY
360
9E3
102
}
330
0
100
AcDbSymbolTable
 70
     4
  0
LAYER
  5
10
102
{ACAD_XDICTIONARY
360
9DE
102
}
330
2
100
AcDbSymbolTableRecord
100
AcDbLayerTableRecord
  2
0
 70
     0
 62
   122
  6
Continuous
370
    30
390
F
347
9A6
348
0
  0
LAYER
  5
9F5
330
2
100
AcDbSymbolTableRecord
100
AcDbLayerTableRecord
  2
1
 70
     0
 62
   111
  6
Continuous
370
    13
390
F
347
9A6
348
0
1001
AcAecLayerStandard
1000

1000

1001
AcCmTransparency
1071
        0
  0
LAYER
  5
ACD
330
2
100
AcDbSymbolTableRecord
100
AcDbLayerTableRecord
  2
размеры
 70
     0
 62
     7
  6
Continuous
370
    15
390
F
347
9A6
348
0
1001
AcAecLayerStandard
1000

1000

1001
AcCmTransparency
1071
        0
  0
LAYER
  5
AD0
330
2
100
AcDbSymbolTableRecord
100
AcDbLayerTableRecord
  2
Defpoints
 70
     0
 62
     7
  6
Continuous
290
     0
370
    -3
390
F
347
9A6
348
0
  0
ENDTAB
  0
TABLE
  2
STYLE
  5
3
330
0
100
AcDbSymbolTable
 70
     2
  0
STYLE
  5
11
330
3
100
AcDbSymbolTableRecord
100
AcDbTextStyleTableRecord
  2
Standard
 70
     0
 40
0.0
 41
1.0
 50
0.0
 71
     0
 42
3.5
  3
txt
  4

  0
STYLE
  5
938
330
3
100
AcDbSymbolTableRecord
100
AcDbTextStyleTableRecord
  2
SLDTEXTSTYLE0
 70
     0
 40
0.0
 41
0.605
 50
0.0
 71
     0
 42
3.5
  3
TXT
  4

  0
ENDTAB
  0
TABLE
  2
VIEW
  5
6
330
0
100
AcDbSymbolTable
 70
     0
  0
ENDTAB
  0
TABLE
  2
UCS
  5
7
330
0
100
AcDbSymbolTable
 70
     0
  0
ENDTAB
  0
TABLE
  2
APPID
  5
9
330
0
100
AcDbSymbolTable
 70
     7
  0
APPID
  5
12
330
9
100
AcDbSymbolTableRecord
100
AcDbRegAppTableRecord
  2
ACAD
 70
     0
  0
APPID
  5
9D3
330
9
100
AcDbSymbolTableRecord
100
AcDbRegAppTableRecord
  2
ACAD_NAV_VCDISPLAY
 70
     0
  0
APPID
  5
9F6
330
9
100
AcDbSymbolTableRecord
100
AcDbRegAppTableRecord
  2
AcAecLayerStandard
 70
     0
  0
APPID
  5
9F7
330
9
100
AcDbSymbolTableRecord
100
AcDbRegAppTableRecord
  2
AcCmTransparency
 70
     0
  0
APPID
  5
A63
330
9
100
AcDbSymbolTableRecord
100
AcDbRegAppTableRecord
  2
GradientColor1ACI
 70
     0
  0
APPID
  5
A64
330
9
100
AcDbSymbolTableRecord
100
AcDbRegAppTableRecord
  2
GradientColor2ACI
 70
     0
  0
APPID
  5
ACE
330
9
100
AcDbSymbolTableRecord
100
AcDbRegAppTableRecord
  2
Acad_TC
 70
     0
  0
ENDTAB
  0
TABLE
  2
DIMSTYLE
  5
A
330
0
100
AcDbSymbolTable
 70
     1
100
AcDbDimStyleTable
 71
     1
340
27
  0
DIMSTYLE
105
27
102
{ACAD_REACTORS
330
AEB
330
AF8
330
B1C
330
B29
330
B36
330
B43
330
B50
330
B5D
330
B6A
330
B77
330
B84
330
B91
102
}
330
A
100
AcDbSymbolTableRecord
100
AcDbDimStyleTableRecord
  2
ISO-25
 70
     0
 41
2.5
 42
0.625
 43
3.75
 44
1.25
 73
     0
 74
     0
 77
     1
 78
     8
140
2.5
141
2.5
143
0.03937007874016
147
0.625
171
     3
172
     1
271
     2
272
     2
274
     3
278
    44
283
     0
284
     8
340
11
  0
ENDTAB
  0
TABLE
  2
BLOCK_RECORD
  5
1
330
0
100
AcDbSymbolTable
 70
    15
  0
BLOCK_RECORD
  5
1F
102
{ACAD_XDICTIONARY
360
A5E
102
}
330
1
100
AcDbSymbolTableRecord
100
AcDbBlockTableRecord
  2
*Model_Space
340
22
 70
     0
280
     1
281
     0
  0
BLOCK_RECORD
  5
1B
330
1
100
AcDbSymbolTableRecord
100
AcDbBlockTableRecord
  2
*Paper_Space
340
1E
 70
     0
280
     1
281
     0
  0
BLOCK_RECORD
  5
23
330
1
100
AcDbSymbolTableRecord
100
AcDbBlockTableRecord
  2
*Paper_Space0
340
26
 70
     0
280
     1
281
     0
  0
BLOCK_RECORD
  5
AEC
330
1
100
AcDbSymbolTableRecord
100
AcDbBlockTableRecord
  2
*D3
340
0
 70
     0
280
     1
281
     0
  0
BLOCK_RECORD
  5
AF9
330
1
100
AcDbSymbolTableRecord
100
AcDbBlockTableRecord
  2
*D4
340
0
 70
     0
280
     1
281
     0
  0
BLOCK_RECORD
  5
B1D
330
1
100
AcDbSymbolTableRecord
100
AcDbBlockTableRecord
  2
*D5
340
0
 70
     0
280
     1
281
     0
  0
BLOCK_RECORD
  5
B2A
330
1
100
AcDbSymbolTableRecord
100
AcDbBlockTableRecord
  2
*D6
340
0
 70
     0
280
     1
281
     0
  0
BLOCK_RECORD
  5
B37
330
1
100
AcDbSymbolTableRecord
100
AcDbBlockTableRecord
  2
*D7
340
0
 70
     0
280
     1
281
     0
  0
BLOCK_RECORD
  5
B44
330
1
100
AcDbSymbolTableRecord
100
AcDbBlockTableRecord
  2
*D8
340
0
 70
     0
280
     1
281
     0
  0
BLOCK_RECORD
  5
B51
330
1
100
AcDbSymbolTableRecord
100
AcDbBlockTableRecord
  2
*D9
340
0
 70
     0
280
     1
281
     0
  0
BLOCK_RECORD
  5
B5E
330
1
100
AcDbSymbolTableRecord
100
AcDbBlockTableRecord
  2
*D10
340
0
 70
     0
280
     1
281
     0
  0
BLOCK_RECORD
  5
B6B
330
1
100
AcDbSymbolTableRecord
100
AcDbBlockTableRecord
  2
*D11
340
0
 70
     0
280
     1
281
     0
  0
BLOCK_RECORD
  5
B78
330
1
100
AcDbSymbolTableRecord
100
AcDbBlockTableRecord
  2
*D12
340
0
 70
     0
280
     1
281
     0
  0
BLOCK_RECORD
  5
B85
330
1
100
AcDbSymbolTableRecord
100
AcDbBlockTableRecord
  2
*D13
340
0
 70
     0
280
     1
281
     0
  0
BLOCK_RECORD
  5
B92
330
1
100
AcDbSymbolTableRecord
100
AcDbBlockTableRecord
  2
*D14
340
0
 70
     0
280
     1
281
     0
  0
ENDTAB
  0
ENDSEC
  0
SECTION
  2
BLOCKS
  0
BLOCK
  5
20
330
1F
100
AcDbEntity
  8
0
100
AcDbBlockBegin
  2
*Model_Space
 70
     0
 10
0.0
 20
0.0
 30
0.0
  3
*Model_Space
  1

  0
ENDBLK
  5
21
330
1F
100
AcDbEntity
  8
0
100
AcDbBlockEnd
  0
BLOCK
  5
1C
330
1B
100
AcDbEntity
 67
     1
  8
0
100
AcDbBlockBegin
  2
*Paper_Space
 70
     0
 10
0.0
 20
0.0
 30
0.0
  3
*Paper_Space
  1

  0
ENDBLK
  5
1D
330
1B
100
AcDbEntity
 67
     1
  8
0
100
AcDbBlockEnd
  0
BLOCK
  5
24
330
23
100
AcDbEntity
 67
     1
  8
0
100
AcDbBlockBegin
  2
*Paper_Space0
 70
     0
 10
0.0
 20
0.0
 30
0.0
  3
*Paper_Space0
  1

  0
ENDBLK
  5
25
330
23
100
AcDbEntity
 67
     1
  8
0
100
AcDbBlockEnd
  0
BLOCK
  5
AED
330
AEC
100
AcDbEntity
  8
0
100
AcDbBlockBegin
  2
*D3
 70
     1
 10
0.0
 20
0.0
 30
0.0
  3
*D3
  1

  0
LINE
  5
B05
330
AEC
100
AcDbEntity
  8
размеры
 62
     0
440
 16777216
370
    -2
100
AcDbLine
 10
61.68816966801981
 20
66.94413337762615
 30
0.0
 11
61.68816966801981
 21
55.20263746402907
 31
0.0
  0
LINE
  5
B06
330
AEC
100
AcDbEntity
  8
размеры
 62
     0
440
 16777216
370
    -2
100
AcDbLine
 10
117.688169668022
 20
66.94413337762615
 30
0.0
 11
117.688169668022
 21
55.20263746402907
 31
0.0
  0
LINE
  5
B07
330
AEC
100
AcDbEntity
  8
размеры
 62
     0
440
 16777216
370
    -2
100
AcDbLine
 10
64.18816966801981
 20
56.45263746402907
 30
0.0
 11
115.1881696680219
 21
56.45263746402907
 31
0.0
  0
SOLID
  5
B08
330
AEC
100
AcDbEntity
  8
размеры
 62
     0
440
 16777216
100
AcDbTrace
 10
64.18816966801981
 20
56.86930413069573
 30
0.0
 11
64.18816966801981
 21
56.0359707973624
 31
0.0
 12
61.68816966801981
 22
56.45263746402907
 32
0.0
 13
61.68816966801981
 23
56.45263746402907
 33
0.0
  0
SOLID
  5
B09
330
AEC
100
AcDbEntity
  8
размеры
 62
     0
440
 16777216
100
AcDbTrace
 10
115.1881696680219
 20
56.86930413069573
 30
0.0
 11
115.1881696680219
 21
56.0359707973624
 31
0.0
 12
117.688169668022
 22
56.45263746402907
 32
0.0
 13
117.688169668022
 23
56.45263746402907
 33
0.0
  0
MTEXT
  5
B0A
330
AEC
100
AcDbEntity
  8
размеры
 62
     0
440
 16777216
100
AcDbMText
 10
89.68816966802089
 20
58.32763746402907
 30
0.0
 40
2.5
 41
0.0
 46
0.0
 71
     5
 72
     1
  1
56
 73
     1
 44
1.0
  0
POINT
  5
B0B
330
AEC
100
AcDbEntity
  8
Defpoints
 62
     0
440
 16777216
100
AcDbPoint
 10
61.68816966801981
 20
67.56913337762615
 30
0.0
  0
POINT
  5
B0C
330
AEC
100
AcDbEntity
  8
Defpoints
 62
     0
440
 16777216
100
AcDbPoint
 10
117.688169668022
 20
67.56913337762615
 30
0.0
  0
POINT
  5
B0D
330
AEC
100
AcDbEntity
  8
Defpoints
 62
     0
440
 16777216
100
AcDbPoint
 10
117.688169668022
 20
56.45263746402907
 30
0.0
  0
ENDBLK
  5
AEE
330
AEC
100
AcDbEntity
  8
0
100
AcDbBlockEnd
  0
BLOCK
  5
AFA
330
AF9
100
AcDbEntity
  8
0
100
AcDbBlockBegin
  2
*D4
 70
     1
 10
0.0
 20
0.0
 30
0.0
  3
*D4
  1

  0
LINE
  5
AFC
330
AF9
100
AcDbEntity
  8
размеры
 62
     0
440
 16777216
370
    -2
100
AcDbLine
 10
111.8131696680221
 20
62.56913337762629
 30
0.0
 11
126.4377537930141
 21
62.56913337762629
 31
0.0
  0
LINE
  5
AFD
330
AF9
100
AcDbEntity
  8
размеры
 62
     0
440
 16777216
370
    -2
100
AcDbLine
 10
118.313169668022
 20
92.56913337762609
 30
0.0
 11
126.4377537930141
 21
92.56913337762609
 31
0.0
  0
LINE
  5
AFE
330
AF9
100
AcDbEntity
  8
размеры
 62
     0
440
 16777216
370
    -2
100
AcDbLine
 10
125.1877537930141
 20
65.0691333776263
 30
0.0
 11
125.1877537930141
 21
90.06913337762609
 31
0.0
  0
SOLID
  5
AFF
330
AF9
100
AcDbEntity
  8
размеры
 62
     0
440
 16777216
100
AcDbTrace
 10
124.7710871263474
 20
65.0691333776263
 30
0.0
 11
125.6044204596808
 21
65.0691333776263
 31
0.0
 12
125.1877537930141
 22
62.56913337762629
 32
0.0
 13
125.1877537930141
 23
62.56913337762629
 33
0.0
  0
SOLID
  5
B00
330
AF9
100
AcDbEntity
  8
размеры
 62
     0
440
 16777216
100
AcDbTrace
 10
124.7710871263474
 20
90.06913337762609
 30
0.0
 11
125.6044204596808
 21
90.06913337762609
 31
0.0
 12
125.1877537930141
 22
92.56913337762609
 32
0.0
 13
125.1877537930141
 23
92.56913337762609
 33
0.0
  0
MTEXT
  5
B01
330
AF9
100
AcDbEntity
  8
размеры
 62
     0
440
 16777216
100
AcDbMText
 10
123.3127537930141
 20
77.56913337762613
 30
0.0
 40
2.5
 41
0.0
 46
0.0
 71
     5
 72
     1
  1
30
 11
0.0000000000000001
 21
1.0
 31
0.0
 73
     1
 44
1.0
  0
POINT
  5
B02
330
AF9
100
AcDbEntity
  8
Defpoints
 62
     0
440
 16777216
100
AcDbPoint
 10
111.1881696680221
 20
62.56913337762629
 30
0.0
  0
POINT
  5
B03
330
AF9
100
AcDbEntity
  8
Defpoints
 62
     0
440
 16777216
100
AcDbPoint
 10
117.688169668022
 20
92.56913337762609
 30
0.0
  0
POINT
  5
B04
330
AF9
100
AcDbEntity
  8
Defpoints
 62
     0
440
 16777216
100
AcDbPoint
 10
125.1877537930141
 20
92.56913337762609
 30
0.0
  0
ENDBLK
  5
AFB
330
AF9
100
AcDbEntity
  8
0
100
AcDbBlockEnd
  0
BLOCK
  5
B1E
330
B1D
100
AcDbEntity
  8
0
100
AcDbBlockBegin
  2
*D5
 70
     1
 10
0.0
 20
0.0
 30
0.0
  3
*D5
  1

  0
LINE
  5
B20
330
B1D
100
AcDbEntity
  8
размеры
 62
     0
440
 16777216
370
    -2
100
AcDbLine
 10
167.6881696680221
 20
66.94413337762615
 30
0.0
 11
167.6881696680221
 21
54.43016750507149
 31
0.0
  0
LINE
  5
B21
330
B1D
100
AcDbEntity
  8
размеры
 62
     0
440
 16777216
370
    -2
100
AcDbLine
 10
217.688169668022
 20
66.94413337762615
 30
0.0
 11
217.688169668022
 21
54.43016750507149
 31
0.0
  0
LINE
  5
B22
330
B1D
100
AcDbEntity
  8
размеры
 62
     0
440
 16777216
370
    -2
100
AcDbLine
 10
170.1881696680221
 20
55.68016750507149
 30
0.0
 11
215.1881696680221
 21
55.68016750507149
 31
0.0
  0
SOLID
  5
B23
330
B1D
100
AcDbEntity
  8
размеры
 62
     0
440
 16777216
100
AcDbTrace
 10
170.1881696680221
 20
56.09683417173815
 30
0.0
 11
170.1881696680221
 21
55.26350083840483
 31
0.0
 12
167.6881696680221
 22
55.68016750507149
 32
0.0
 13
167.6881696680221
 23
55.68016750507149
 33
0.0
  0
SOLID
  5
B24
330
B1D
100
AcDbEntity
  8
размеры
 62
     0
440
 16777216
100
AcDbTrace
 10
215.1881696680221
 20
56.09683417173815
 30
0.0
 11
215.1881696680221
 21
55.26350083840483
 31
0.0
 12
217.688169668022
 22
55.68016750507149
 32
0.0
 13
217.688169668022
 23
55.68016750507149
 33
0.0
  0
MTEXT
  5
B25
330
B1D
100
AcDbEntity
  8
размеры
 62
     0
440
 16777216
100
AcDbMText
 10
192.6881696680221
 20
57.55516750507149
 30
0.0
 40
2.5
 41
0.0
 46
0.0
 71
     5
 72
     1
  1
50
 73
     1
 44
1.0
  0
POINT
  5
B26
330
B1D
100
AcDbEntity
  8
Defpoints
 62
     0
440
 16777216
100
AcDbPoint
 10
167.6881696680221
 20
67.56913337762615
 30
0.0
  0
POINT
  5
B27
330
B1D
100
AcDbEntity
  8
Defpoints
 62
     0
440
 16777216
100
AcDbPoint
 10
217.688169668022
 20
67.56913337762615
 30
0.0
  0
POINT
  5
B28
330
B1D
100
AcDbEntity
  8
Defpoints
 62
     0
440
 16777216
100
AcDbPoint
 10
217.688169668022
 20
55.68016750507149
 30
0.0
  0
ENDBLK
  5
B1F
330
B1D
100
AcDbEntity
  8
0
100
AcDbBlockEnd
  0
BLOCK
  5
B2B
330
B2A
100
AcDbEntity
  8
0
100
AcDbBlockBegin
  2
*D6
 70
     1
 10
0.0
 20
0.0
 30
0.0
  3
*D6
  1

  0
LINE
  5
B2D
330
B2A
100
AcDbEntity
  8
размеры
 62
     0
440
 16777216
370
    -2
100
AcDbLine
 10
211.8131696680221
 20
62.56913337762629
 30
0.0
 11
226.6085116203341
 21
62.56913337762629
 31
0.0
  0
LINE
  5
B2E
330
B2A
100
AcDbEntity
  8
размеры
 62
     0
440
 16777216
370
    -2
100
AcDbLine
 10
218.3131696680222
 20
92.56913337762609
 30
0.0
 11
226.6085116203341
 21
92.56913337762609
 31
0.0
  0
LINE
  5
B2F
330
B2A
100
AcDbEntity
  8
размеры
 62
     0
440
 16777216
370
    -2
100
AcDbLine
 10
225.3585116203341
 20
65.0691333776263
 30
0.0
 11
225.3585116203341
 21
90.06913337762609
 31
0.0
  0
SOLID
  5
B30
330
B2A
100
AcDbEntity
  8
размеры
 62
     0
440
 16777216
100
AcDbTrace
 10
224.9418449536674
 20
65.0691333776263
 30
0.0
 11
225.7751782870007
 21
65.0691333776263
 31
0.0
 12
225.3585116203341
 22
62.56913337762629
 32
0.0
 13
225.3585116203341
 23
62.56913337762629
 33
0.0
  0
SOLID
  5
B31
330
B2A
100
AcDbEntity
  8
размеры
 62
     0
440
 16777216
100
AcDbTrace
 10
224.9418449536674
 20
90.06913337762609
 30
0.0
 11
225.7751782870007
 21
90.06913337762609
 31
0.0
 12
225.3585116203341
 22
92.56913337762609
 32
0.0
 13
225.3585116203341
 23
92.56913337762609
 33
0.0
  0
MTEXT
  5
B32
330
B2A
100
AcDbEntity
  8
размеры
 62
     0
440
 16777216
100
AcDbMText
 10
223.4835116203341
 20
77.56913337762611
 30
0.0
 40
2.5
 41
0.0
 46
0.0
 71
     5
 72
     1
  1
30
 11
0.0000000000000001
 21
1.0
 31
0.0
 73
     1
 44
1.0
  0
POINT
  5
B33
330
B2A
100
AcDbEntity
  8
Defpoints
 62
     0
440
 16777216
100
AcDbPoint
 10
211.1881696680221
 20
62.56913337762629
 30
0.0
  0
POINT
  5
B34
330
B2A
100
AcDbEntity
  8
Defpoints
 62
     0
440
 16777216
100
AcDbPoint
 10
217.6881696680222
 20
92.56913337762609
 30
0.0
  0
POINT
  5
B35
330
B2A
100
AcDbEntity
  8
Defpoints
 62
     0
440
 16777216
100
AcDbPoint
 10
225.3585116203341
 20
92.56913337762609
 30
0.0
  0
ENDBLK
  5
B2C
330
B2A
100
AcDbEntity
  8
0
100
AcDbBlockEnd
  0
BLOCK
  5
B38
330
B37
100
AcDbEntity
  8
0
100
AcDbBlockBegin
  2
*D7
 70
     1
 10
0.0
 20
0.0
 30
0.0
  3
*D7
  1

  0
LINE
  5
B3A
330
B37
100
AcDbEntity
  8
размеры
 62
     0
440
 16777216
370
    -2
100
AcDbLine
 10
264.68816966802
 20
66.94413337762615
 30
0.0
 11
264.68816966802
 21
54.45581282321928
 31
0.0
  0
LINE
  5
B3B
330
B37
100
AcDbEntity
  8
размеры
 62
     0
440
 16777216
370
    -2
100
AcDbLine
 10
327.6881696680221
 20
66.94413337762615
 30
0.0
 11
327.6881696680221
 21
54.45581282321928
 31
0.0
  0
LINE
  5
B3C
330
B37
100
AcDbEntity
  8
размеры
 62
     0
440
 16777216
370
    -2
100
AcDbLine
 10
267.18816966802
 20
55.70581282321928
 30
0.0
 11
325.1881696680221
 21
55.70581282321928
 31
0.0
  0
SOLID
  5
B3D
330
B37
100
AcDbEntity
  8
размеры
 62
     0
440
 16777216
100
AcDbTrace
 10
267.18816966802
 20
56.12247948988594
 30
0.0
 11
267.18816966802
 21
55.28914615655261
 31
0.0
 12
264.68816966802
 22
55.70581282321928
 32
0.0
 13
264.68816966802
 23
55.70581282321928
 33
0.0
  0
SOLID
  5
B3E
330
B37
100
AcDbEntity
  8
размеры
 62
     0
440
 16777216
100
AcDbTrace
 10
325.1881696680221
 20
56.12247948988594
 30
0.0
 11
325.1881696680221
 21
55.28914615655261
 31
0.0
 12
327.6881696680221
 22
55.70581282321928
 32
0.0
 13
327.6881696680221
 23
55.70581282321928
 33
0.0
  0
MTEXT
  5
B3F
330
B37
100
AcDbEntity
  8
размеры
 62
     0
440
 16777216
100
AcDbMText
 10
296.188169668021
 20
57.58081282321928
 30
0.0
 40
2.5
 41
0.0
 46
0.0
 71
     5
 72
     1
  1
63
 73
     1
 44
1.0
  0
POINT
  5
B40
330
B37
100
AcDbEntity
  8
Defpoints
 62
     0
440
 16777216
100
AcDbPoint
 10
264.68816966802
 20
67.56913337762615
 30
0.0
  0
POINT
  5
B41
330
B37
100
AcDbEntity
  8
Defpoints
 62
     0
440
 16777216
100
AcDbPoint
 10
327.6881696680221
 20
67.56913337762615
 30
0.0
  0
POINT
  5
B42
330
B37
100
AcDbEntity
  8
Defpoints
 62
     0
440
 16777216
100
AcDbPoint
 10
327.6881696680221
 20
55.70581282321928
 30
0.0
  0
ENDBLK
  5
B39
330
B37
100
AcDbEntity
  8
0
100
AcDbBlockEnd
  0
BLOCK
  5
B45
330
B44
100
AcDbEntity
  8
0
100
AcDbBlockBegin
  2
*D8
 70
     1
 10
0.0
 20
0.0
 30
0.0
  3
*D8
  1

  0
LINE
  5
B47
330
B44
100
AcDbEntity
  8
размеры
 62
     0
440
 16777216
370
    -2
100
AcDbLine
 10
321.8131696680221
 20
62.56913337762629
 30
0.0
 11
336.785123275714
 21
62.56913337762629
 31
0.0
  0
LINE
  5
B48
330
B44
100
AcDbEntity
  8
размеры
 62
     0
440
 16777216
370
    -2
100
AcDbLine
 10
328.3131696680222
 20
107.5691333776262
 30
0.0
 11
336.785123275714
 21
107.5691333776262
 31
0.0
  0
LINE
  5
B49
330
B44
100
AcDbEntity
  8
размеры
 62
     0
440
 16777216
370
    -2
100
AcDbLine
 10
335.535123275714
 20
65.06913337762629
 30
0.0
 11
335.535123275714
 21
105.0691333776262
 31
0.0
  0
SOLID
  5
B4A
330
B44
100
AcDbEntity
  8
размеры
 62
     0
440
 16777216
100
AcDbTrace
 10
335.1184566090473
 20
65.06913337762629
 30
0.0
 11
335.9517899423807
 21
65.06913337762629
 31
0.0
 12
335.535123275714
 22
62.56913337762629
 32
0.0
 13
335.535123275714
 23
62.56913337762629
 33
0.0
  0
SOLID
  5
B4B
330
B44
100
AcDbEntity
  8
размеры
 62
     0
440
 16777216
100
AcDbTrace
 10
335.1184566090473
 20
105.0691333776262
 30
0.0
 11
335.9517899423807
 21
105.0691333776262
 31
0.0
 12
335.535123275714
 22
107.5691333776262
 32
0.0
 13
335.535123275714
 23
107.5691333776262
 33
0.0
  0
MTEXT
  5
B4C
330
B44
100
AcDbEntity
  8
размеры
 62
     0
440
 16777216
100
AcDbMText
 10
333.660123275714
 20
85.06913337762616
 30
0.0
 40
2.5
 41
0.0
 46
0.0
 71
     5
 72
     1
  1
45
 11
0.0000000000000001
 21
1.0
 31
0.0
 73
     1
 44
1.0
  0
POINT
  5
B4D
330
B44
100
AcDbEntity
  8
Defpoints
 62
     0
440
 16777216
100
AcDbPoint
 10
321.1881696680221
 20
62.56913337762629
 30
0.0
  0
POINT
  5
B4E
330
B44
100
AcDbEntity
  8
Defpoints
 62
     0
440
 16777216
100
AcDbPoint
 10
327.6881696680222
 20
107.5691333776262
 30
0.0
  0
POINT
  5
B4F
330
B44
100
AcDbEntity
  8
Defpoints
 62
     0
440
 16777216
100
AcDbPoint
 10
335.535123275714
 20
107.5691333776262
 30
0.0
  0
ENDBLK
  5
B46
330
B44
100
AcDbEntity
  8
0
100
AcDbBlockEnd
  0
BLOCK
  5
B52
330
B51
100
AcDbEntity
  8
0
100
AcDbBlockBegin
  2
*D9
 70
     1
 10
0.0
 20
0.0
 30
0.0
  3
*D9
  1

  0
LINE
  5
B54
330
B51
100
AcDbEntity
  8
размеры
 62
     0
440
 16777216
370
    -2
100
AcDbLine
 10
384.68816966802
 20
66.94413337762615
 30
0.0
 11
384.68816966802
 21
54.45581282321928
 31
0.0
  0
LINE
  5
B55
330
B51
100
AcDbEntity
  8
размеры
 62
     0
440
 16777216
370
    -2
100
AcDbLine
 10
447.6881696680219
 20
66.94413337762615
 30
0.0
 11
447.6881696680219
 21
54.45581282321928
 31
0.0
  0
LINE
  5
B56
330
B51
100
AcDbEntity
  8
размеры
 62
     0
440
 16777216
370
    -2
100
AcDbLine
 10
387.18816966802
 20
55.70581282321928
 30
0.0
 11
445.1881696680219
 21
55.70581282321928
 31
0.0
  0
SOLID
  5
B57
330
B51
100
AcDbEntity
  8
размеры
 62
     0
440
 16777216
100
AcDbTrace
 10
387.18816966802
 20
56.12247948988594
 30
0.0
 11
387.18816966802
 21
55.28914615655261
 31
0.0
 12
384.68816966802
 22
55.70581282321928
 32
0.0
 13
384.68816966802
 23
55.70581282321928
 33
0.0
  0
SOLID
  5
B58
330
B51
100
AcDbEntity
  8
размеры
 62
     0
440
 16777216
100
AcDbTrace
 10
445.1881696680219
 20
56.12247948988594
 30
0.0
 11
445.1881696680219
 21
55.28914615655261
 31
0.0
 12
447.6881696680219
 22
55.70581282321928
 32
0.0
 13
447.6881696680219
 23
55.70581282321928
 33
0.0
  0
MTEXT
  5
B59
330
B51
100
AcDbEntity
  8
размеры
 62
     0
440
 16777216
100
AcDbMText
 10
416.1881696680209
 20
57.58081282321928
 30
0.0
 40
2.5
 41
0.0
 46
0.0
 71
     5
 72
     1
  1
63
 73
     1
 44
1.0
  0
POINT
  5
B5A
330
B51
100
AcDbEntity
  8
Defpoints
 62
     0
440
 16777216
100
AcDbPoint
 10
384.68816966802
 20
67.56913337762615
 30
0.0
  0
POINT
  5
B5B
330
B51
100
AcDbEntity
  8
Defpoints
 62
     0
440
 16777216
100
AcDbPoint
 10
447.6881696680219
 20
67.56913337762615
 30
0.0
  0
POINT
  5
B5C
330
B51
100
AcDbEntity
  8
Defpoints
 62
     0
440
 16777216
100
AcDbPoint
 10
447.6881696680219
 20
55.70581282321928
 30
0.0
  0
ENDBLK
  5
B53
330
B51
100
AcDbEntity
  8
0
100
AcDbBlockEnd
  0
BLOCK
  5
B5F
330
B5E
100
AcDbEntity
  8
0
100
AcDbBlockBegin
  2
*D10
 70
     1
 10
0.0
 20
0.0
 30
0.0
  3
*D10
  1

  0
LINE
  5
B61
330
B5E
100
AcDbEntity
  8
размеры
 62
     0
440
 16777216
370
    -2
100
AcDbLine
 10
441.8131696680221
 20
62.56913337762629
 30
0.0
 11
456.4001740725482
 21
62.56913337762629
 31
0.0
  0
LINE
  5
B62
330
B5E
100
AcDbEntity
  8
размеры
 62
     0
440
 16777216
370
    -2
100
AcDbLine
 10
448.3131696680222
 20
162.569133377626
 30
0.0
 11
456.4001740725482
 21
162.569133377626
 31
0.0
  0
LINE
  5
B63
330
B5E
100
AcDbEntity
  8
размеры
 62
     0
440
 16777216
370
    -2
100
AcDbLine
 10
455.1501740725482
 20
65.06913337762629
 30
0.0
 11
455.1501740725482
 21
160.069133377626
 31
0.0
  0
SOLID
  5
B64
330
B5E
100
AcDbEntity
  8
размеры
 62
     0
440
 16777216
100
AcDbTrace
 10
454.7335074058816
 20
65.06913337762629
 30
0.0
 11
455.566840739215
 21
65.06913337762629
 31
0.0
 12
455.1501740725482
 22
62.56913337762629
 32
0.0
 13
455.1501740725482
 23
62.56913337762629
 33
0.0
  0
SOLID
  5
B65
330
B5E
100
AcDbEntity
  8
размеры
 62
     0
440
 16777216
100
AcDbTrace
 10
454.7335074058815
 20
160.069133377626
 30
0.0
 11
455.5668407392149
 21
160.069133377626
 31
0.0
 12
455.1501740725482
 22
162.569133377626
 32
0.0
 13
455.1501740725482
 23
162.569133377626
 33
0.0
  0
MTEXT
  5
B66
330
B5E
100
AcDbEntity
  8
размеры
 62
     0
440
 16777216
100
AcDbMText
 10
453.2751740725482
 20
112.569133377626
 30
0.0
 40
2.5
 41
0.0
 46
0.0
 71
     5
 72
     1
  1
100
 11
0.0000000000000001
 21
1.0
 31
0.0
 73
     1
 44
1.0
  0
POINT
  5
B67
330
B5E
100
AcDbEntity
  8
Defpoints
 62
     0
440
 16777216
100
AcDbPoint
 10
441.1881696680222
 20
62.56913337762629
 30
0.0
  0
POINT
  5
B68
330
B5E
100
AcDbEntity
  8
Defpoints
 62
     0
440
 16777216
100
AcDbPoint
 10
447.6881696680221
 20
162.5691333776259
 30
0.0
  0
POINT
  5
B69
330
B5E
100
AcDbEntity
  8
Defpoints
 62
     0
440
 16777216
100
AcDbPoint
 10
455.1501740725482
 20
162.569133377626
 30
0.0
  0
ENDBLK
  5
B60
330
B5E
100
AcDbEntity
  8
0
100
AcDbBlockEnd
  0
BLOCK
  5
B6C
330
B6B
100
AcDbEntity
  8
0
100
AcDbBlockBegin
  2
*D11
 70
     1
 10
0.0
 20
0.0
 30
0.0
  3
*D11
  1

  0
LINE
  5
B6E
330
B6B
100
AcDbEntity
  8
размеры
 62
     0
440
 16777216
370
    -2
100
AcDbLine
 10
514.688169668022
 20
66.94413337762615
 30
0.0
 11
514.688169668022
 21
54.45581282321928
 31
0.0
  0
LINE
  5
B6F
330
B6B
100
AcDbEntity
  8
размеры
 62
     0
440
 16777216
370
    -2
100
AcDbLine
 10
577.688169668022
 20
66.94413337762615
 30
0.0
 11
577.688169668022
 21
54.45581282321928
 31
0.0
  0
LINE
  5
B70
330
B6B
100
AcDbEntity
  8
размеры
 62
     0
440
 16777216
370
    -2
100
AcDbLine
 10
517.1881696680221
 20
55.70581282321928
 30
0.0
 11
575.1881696680221
 21
55.70581282321928
 31
0.0
  0
SOLID
  5
B71
330
B6B
100
AcDbEntity
  8
размеры
 62
     0
440
 16777216
100
AcDbTrace
 10
517.1881696680221
 20
56.12247948988594
 30
0.0
 11
517.1881696680221
 21
55.28914615655261
 31
0.0
 12
514.688169668022
 22
55.70581282321928
 32
0.0
 13
514.688169668022
 23
55.70581282321928
 33
0.0
  0
SOLID
  5
B72
330
B6B
100
AcDbEntity
  8
размеры
 62
     0
440
 16777216
100
AcDbTrace
 10
575.1881696680221
 20
56.12247948988594
 30
0.0
 11
575.1881696680221
 21
55.28914615655261
 31
0.0
 12
577.688169668022
 22
55.70581282321928
 32
0.0
 13
577.688169668022
 23
55.70581282321928
 33
0.0
  0
MTEXT
  5
B73
330
B6B
100
AcDbEntity
  8
размеры
 62
     0
440
 16777216
100
AcDbMText
 10
546.1881696680221
 20
57.58081282321928
 30
0.0
 40
2.5
 41
0.0
 46
0.0
 71
     5
 72
     1
  1
63
 73
     1
 44
1.0
  0
POINT
  5
B74
330
B6B
100
AcDbEntity
  8
Defpoints
 62
     0
440
 16777216
100
AcDbPoint
 10
514.688169668022
 20
67.56913337762615
 30
0.0
  0
POINT
  5
B75
330
B6B
100
AcDbEntity
  8
Defpoints
 62
     0
440
 16777216
100
AcDbPoint
 10
577.688169668022
 20
67.56913337762615
 30
0.0
  0
POINT
  5
B76
330
B6B
100
AcDbEntity
  8
Defpoints
 62
     0
440
 16777216
100
AcDbPoint
 10
577.688169668022
 20
55.70581282321928
 30
0.0
  0
ENDBLK
  5
B6D
330
B6B
100
AcDbEntity
  8
0
100
AcDbBlockEnd
  0
BLOCK
  5
B79
330
B78
100
AcDbEntity
  8
0
100
AcDbBlockBegin
  2
*D12
 70
     1
 10
0.0
 20
0.0
 30
0.0
  3
*D12
  1

  0
LINE
  5
B7B
330
B78
100
AcDbEntity
  8
размеры
 62
     0
440
 16777216
370
    -2
100
AcDbLine
 10
571.8131696680223
 20
62.56913337762629
 30
0.0
 11
585.9148515172176
 21
62.56913337762629
 31
0.0
  0
LINE
  5
B7C
330
B78
100
AcDbEntity
  8
размеры
 62
     0
440
 16777216
370
    -2
100
AcDbLine
 10
578.3131696680222
 20
92.56913337762609
 30
0.0
 11
585.9148515172176
 21
92.56913337762609
 31
0.0
  0
LINE
  5
B7D
330
B78
100
AcDbEntity
  8
размеры
 62
     0
440
 16777216
370
    -2
100
AcDbLine
 10
584.6648515172176
 20
65.06913337762629
 30
0.0
 11
584.6648515172176
 21
90.06913337762609
 31
0.0
  0
SOLID
  5
B7E
330
B78
100
AcDbEntity
  8
размеры
 62
     0
440
 16777216
100
AcDbTrace
 10
584.2481848505509
 20
65.06913337762629
 30
0.0
 11
585.0815181838842
 21
65.06913337762629
 31
0.0
 12
584.6648515172176
 22
62.56913337762629
 32
0.0
 13
584.6648515172176
 23
62.56913337762629
 33
0.0
  0
SOLID
  5
B7F
330
B78
100
AcDbEntity
  8
размеры
 62
     0
440
 16777216
100
AcDbTrace
 10
584.2481848505509
 20
90.06913337762609
 30
0.0
 11
585.0815181838842
 21
90.06913337762609
 31
0.0
 12
584.6648515172176
 22
92.56913337762609
 32
0.0
 13
584.6648515172176
 23
92.56913337762609
 33
0.0
  0
MTEXT
  5
B80
330
B78
100
AcDbEntity
  8
размеры
 62
     0
440
 16777216
100
AcDbMText
 10
582.7898515172174
 20
77.569133377626
 30
0.0
 40
2.5
 41
0.0
 46
0.0
 71
     5
 72
     1
  1
30
 11
0.0000000000000001
 21
1.0
 31
0.0
 73
     1
 44
1.0
  0
POINT
  5
B81
330
B78
100
AcDbEntity
  8
Defpoints
 62
     0
440
 16777216
100
AcDbPoint
 10
571.1881696680222
 20
62.56913337762629
 30
0.0
  0
POINT
  5
B82
330
B78
100
AcDbEntity
  8
Defpoints
 62
     0
440
 16777216
100
AcDbPoint
 10
577.6881696680223
 20
92.56913337762609
 30
0.0
  0
POINT
  5
B83
330
B78
100
AcDbEntity
  8
Defpoints
 62
     0
440
 16777216
100
AcDbPoint
 10
584.6648515172176
 20
92.56913337762609
 30
0.0
  0
ENDBLK
  5
B7A
330
B78
100
AcDbEntity
  8
0
100
AcDbBlockEnd
  0
BLOCK
  5
B86
330
B85
100
AcDbEntity
  8
0
100
AcDbBlockBegin
  2
*D13
 70
     1
 10
0.0
 20
0.0
 30
0.0
  3
*D13
  1

  0
LINE
  5
B88
330
B85
100
AcDbEntity
  8
размеры
 62
     0
440
 16777216
370
    -2
100
AcDbLine
 10
628.6881696680199
 20
66.94413337762615
 30
0.0
 11
628.6881696680199
 21
54.45581282321928
 31
0.0
  0
LINE
  5
B89
330
B85
100
AcDbEntity
  8
размеры
 62
     0
440
 16777216
370
    -2
100
AcDbLine
 10
697.6881696680219
 20
66.94413337762615
 30
0.0
 11
697.6881696680219
 21
54.45581282321928
 31
0.0
  0
LINE
  5
B8A
330
B85
100
AcDbEntity
  8
размеры
 62
     0
440
 16777216
370
    -2
100
AcDbLine
 10
631.18816966802
 20
55.70581282321928
 30
0.0
 11
695.1881696680219
 21
55.70581282321928
 31
0.0
  0
SOLID
  5
B8B
330
B85
100
AcDbEntity
  8
размеры
 62
     0
440
 16777216
100
AcDbTrace
 10
631.18816966802
 20
56.12247948988594
 30
0.0
 11
631.18816966802
 21
55.28914615655261
 31
0.0
 12
628.6881696680199
 22
55.70581282321928
 32
0.0
 13
628.6881696680199
 23
55.70581282321928
 33
0.0
  0
SOLID
  5
B8C
330
B85
100
AcDbEntity
  8
размеры
 62
     0
440
 16777216
100
AcDbTrace
 10
695.1881696680219
 20
56.12247948988594
 30
0.0
 11
695.1881696680219
 21
55.28914615655261
 31
0.0
 12
697.6881696680219
 22
55.70581282321928
 32
0.0
 13
697.6881696680219
 23
55.70581282321928
 33
0.0
  0
MTEXT
  5
B8D
330
B85
100
AcDbEntity
  8
размеры
 62
     0
440
 16777216
100
AcDbMText
 10
663.1881696680209
 20
57.58081282321928
 30
0.0
 40
2.5
 41
0.0
 46
0.0
 71
     5
 72
     1
  1
69
 73
     1
 44
1.0
  0
POINT
  5
B8E
330
B85
100
AcDbEntity
  8
Defpoints
 62
     0
440
 16777216
100
AcDbPoint
 10
628.6881696680199
 20
67.56913337762615
 30
0.0
  0
POINT
  5
B8F
330
B85
100
AcDbEntity
  8
Defpoints
 62
     0
440
 16777216
100
AcDbPoint
 10
697.6881696680219
 20
67.56913337762615
 30
0.0
  0
POINT
  5
B90
330
B85
100
AcDbEntity
  8
Defpoints
 62
     0
440
 16777216
100
AcDbPoint
 10
697.6881696680219
 20
55.70581282321928
 30
0.0
  0
ENDBLK
  5
B87
330
B85
100
AcDbEntity
  8
0
100
AcDbBlockEnd
  0
BLOCK
  5
B93
330
B92
100
AcDbEntity
  8
0
100
AcDbBlockBegin
  2
*D14
 70
     1
 10
0.0
 20
0.0
 30
0.0
  3
*D14
  1

  0
LINE
  5
B95
330
B92
100
AcDbEntity
  8
размеры
 62
     0
440
 16777216
370
    -2
100
AcDbLine
 10
691.8131696680222
 20
62.56913337762629
 30
0.0
 11
705.7290361431435
 21
62.56913337762629
 31
0.0
  0
LINE
  5
B96
330
B92
100
AcDbEntity
  8
размеры
 62
     0
440
 16777216
370
    -2
100
AcDbLine
 10
698.3131696680222
 20
92.56913337762609
 30
0.0
 11
705.7290361431435
 21
92.56913337762609
 31
0.0
  0
LINE
  5
B97
330
B92
100
AcDbEntity
  8
размеры
 62
     0
440
 16777216
370
    -2
100
AcDbLine
 10
704.4790361431434
 20
65.06913337762629
 30
0.0
 11
704.4790361431434
 21
90.06913337762609
 31
0.0
  0
SOLID
  5
B98
330
B92
100
AcDbEntity
  8
размеры
 62
     0
440
 16777216
100
AcDbTrace
 10
704.0623694764768
 20
65.06913337762629
 30
0.0
 11
704.8957028098101
 21
65.06913337762629
 31
0.0
 12
704.4790361431434
 22
62.56913337762629
 32
0.0
 13
704.4790361431434
 23
62.56913337762629
 33
0.0
  0
SOLID
  5
B99
330
B92
100
AcDbEntity
  8
размеры
 62
     0
440
 16777216
100
AcDbTrace
 10
704.0623694764768
 20
90.06913337762609
 30
0.0
 11
704.8957028098101
 21
90.06913337762609
 31
0.0
 12
704.4790361431434
 22
92.56913337762609
 32
0.0
 13
704.4790361431434
 23
92.56913337762609
 33
0.0
  0
MTEXT
  5
B9A
330
B92
100
AcDbEntity
  8
размеры
 62
     0
440
 16777216
100
AcDbMText
 10
702.6040361431434
 20
77.56913337762597
 30
0.0
 40
2.5
 41
0.0
 46
0.0
 71
     5
 72
     1
  1
30
 11
0.0000000000000001
 21
1.0
 31
0.0
 73
     1
 44
1.0
  0
POINT
  5
B9B
330
B92
100
AcDbEntity
  8
Defpoints
 62
     0
440
 16777216
100
AcDbPoint
 10
691.1881696680223
 20
62.56913337762629
 30
0.0
  0
POINT
  5
B9C
330
B92
100
AcDbEntity
  8
Defpoints
 62
     0
440
 16777216
100
AcDbPoint
 10
697.6881696680221
 20
92.56913337762609
 30
0.0
  0
POINT
  5
B9D
330
B92
100
AcDbEntity
  8
Defpoints
 62
     0
440
 16777216
100
AcDbPoint
 10
704.4790361431434
 20
92.56913337762609
 30
0.0
  0
ENDBLK
  5
B94
330
B92
100
AcDbEntity
  8
0
100
AcDbBlockEnd
  0
ENDSEC
  0
SECTION
  2
ENTITIES
  0
LINE
  5
93B
102
{ACAD_REACTORS
330
A65
102
}
330
1F
100
AcDbEntity
  8
0
  6
Continuous
100
AcDbLine
 10
117.688169668022
 20
92.56913337762606
 30
0.0
 11
66.83941888774478
 21
92.56913337762606
 31
0.0
  0
LINE
  5
93C
102
{ACAD_REACTORS
330
A65
102
}
330
1F
100
AcDbEntity
  8
0
  6
Continuous
100
AcDbLine
 10
66.18816966801986
 20
62.56913337762625
 30
0.0
 11
111.188169668022
 21
62.56913337762625
 31
0.0
  0
LINE
  5
93D
102
{ACAD_REACTORS
330
A65
102
}
330
1F
100
AcDbEntity
  8
0
  6
Continuous
100
AcDbLine
 10
111.188169668022
 20
67.56913337762615
 30
0.0
 11
111.188169668022
 21
62.56913337762625
 31
0.0
  0
ARC
  5
93E
102
{ACAD_REACTORS
330
A65
102
}
330
1F
100
AcDbEntity
  8
0
  6
Continuous
100
AcDbCircle
 10
63.78816966801981
 20
94.57175986015597
 30
0.0
 40
1.997373517478257
100
AcDbArc
 50
2.862405226119147
 51
177.1375947738825
  0
LINE
  5
93F
102
{ACAD_REACTORS
330
A65
102
}
330
1F
100
AcDbEntity
  8
0
  6
Continuous
100
AcDbLine
 10
65.78305114021287
 20
94.67150393376588
 30
0.0
 11
65.84066654886678
 21
93.5191957606861
 31
0.0
  0
LINE
  5
940
102
{ACAD_REACTORS
330
A65
102
}
330
1F
100
AcDbEntity
  8
0
  6
Continuous
100
AcDbLine
 10
61.68816966801981
 20
67.56913337762615
 30
0.0
 11
61.68816966801981
 21
92.56913337762606
 31
0.0
  0
LINE
  5
941
102
{ACAD_REACTORS
330
A65
102
}
330
1F
100
AcDbEntity
  8
0
  6
Continuous
100
AcDbLine
 10
66.18816966801986
 20
62.56913337762625
 30
0.0
 11
66.18816966801986
 21
67.56913337762615
 31
0.0
  0
LINE
  5
942
102
{ACAD_REACTORS
330
A65
102
}
330
1F
100
AcDbEntity
  8
0
  6
Continuous
100
AcDbLine
 10
117.688169668022
 20
67.56913337762615
 30
0.0
 11
111.188169668022
 21
67.56913337762615
 31
0.0
  0
LINE
  5
943
102
{ACAD_REACTORS
330
A65
102
}
330
1F
100
AcDbEntity
  8
0
  6
Continuous
100
AcDbLine
 10
117.688169668022
 20
92.56913337762606
 30
0.0
 11
117.688169668022
 21
67.56913337762615
 31
0.0
  0
ARC
  5
944
102
{ACAD_REACTORS
330
A65
102
}
330
1F
100
AcDbEntity
  8
0
  6
Continuous
100
AcDbCircle
 10
66.83941888774478
 20
93.56913337762595
 30
0.0
 40
0.9999999999999589
100
AcDbArc
 50
182.8624052258811
 51
270.0
  0
LINE
  5
945
102
{ACAD_REACTORS
330
A65
102
}
330
1F
100
AcDbEntity
  8
0
  6
Continuous
100
AcDbLine
 10
61.68816966801981
 20
92.56913337762606
 30
0.0
 11
61.79328819582574
 21
94.67150393376588
 31
0.0
  0
LINE
  5
946
102
{ACAD_REACTORS
330
A65
102
}
330
1F
100
AcDbEntity
  8
0
  6
Continuous
100
AcDbLine
 10
66.18816966801986
 20
67.56913337762615
 30
0.0
 11
61.68816966801981
 21
67.56913337762615
 31
0.0
  0
LINE
  5
947
102
{ACAD_REACTORS
330
A79
102
}
330
1F
100
AcDbEntity
  8
0
  6
Continuous
100
AcDbLine
 10
211.6881696680219
 20
97.56913337762595
 30
0.0
 11
211.6881696680219
 21
92.56913337762606
 31
0.0
  0
LINE
  5
948
102
{ACAD_REACTORS
330
A79
102
}
330
1F
100
AcDbEntity
  8
0
  6
Continuous
100
AcDbLine
 10
217.688169668022
 20
67.56913337762615
 30
0.0
 11
211.188169668022
 21
67.56913337762615
 31
0.0
  0
LINE
  5
949
102
{ACAD_REACTORS
330
A79
102
}
330
1F
100
AcDbEntity
  8
0
  6
Continuous
100
AcDbLine
 10
211.188169668022
 20
67.56913337762615
 30
0.0
 11
211.188169668022
 21
62.56913337762625
 31
0.0
  0
LINE
  5
94A
102
{ACAD_REACTORS
330
A79
102
}
330
1F
100
AcDbEntity
  8
0
  6
Continuous
100
AcDbLine
 10
211.188169668022
 20
62.56913337762625
 30
0.0
 11
176.1881696680219
 21
62.56913337762625
 31
0.0
  0
LINE
  5
94B
102
{ACAD_REACTORS
330
A79
102
}
330
1F
100
AcDbEntity
  8
0
  6
Continuous
100
AcDbLine
 10
176.1881696680219
 20
62.56913337762625
 30
0.0
 11
176.1881696680219
 21
67.56913337762615
 31
0.0
  0
LINE
  5
94C
102
{ACAD_REACTORS
330
A79
102
}
330
1F
100
AcDbEntity
  8
0
  6
Continuous
100
AcDbLine
 10
176.1881696680219
 20
67.56913337762615
 30
0.0
 11
167.6881696680221
 21
67.56913337762615
 31
0.0
  0
LINE
  5
94D
102
{ACAD_REACTORS
330
A79
102
}
330
1F
100
AcDbEntity
  8
0
  6
Continuous
100
AcDbLine
 10
167.6881696680221
 20
67.56913337762615
 30
0.0
 11
167.6881696680221
 21
92.56913337762606
 31
0.0
  0
LINE
  5
94E
102
{ACAD_REACTORS
330
A79
102
}
330
1F
100
AcDbEntity
  8
0
  6
Continuous
100
AcDbLine
 10
167.6881696680221
 20
92.56913337762606
 30
0.0
 11
173.6881696680221
 21
92.56913337762606
 31
0.0
  0
LINE
  5
94F
102
{ACAD_REACTORS
330
A79
102
}
330
1F
100
AcDbEntity
  8
0
  6
Continuous
100
AcDbLine
 10
206.188169668022
 20
92.56913337762538
 30
0.0
 11
201.6881696680222
 21
92.56913337762094
 31
0.0
  0
LINE
  5
950
102
{ACAD_REACTORS
330
A79
102
}
330
1F
100
AcDbEntity
  8
0
  6
Continuous
100
AcDbLine
 10
206.188169668022
 20
92.56913337762538
 30
0.0
 11
206.188169668022
 21
97.56913337762595
 31
0.0
  0
LINE
  5
951
102
{ACAD_REACTORS
330
A79
102
}
330
1F
100
AcDbEntity
  8
0
  6
Continuous
100
AcDbLine
 10
206.188169668022
 20
97.56913337762595
 30
0.0
 11
211.6881696680219
 21
97.56913337762595
 31
0.0
  0
LINE
  5
952
102
{ACAD_REACTORS
330
A79
102
}
330
1F
100
AcDbEntity
  8
0
  6
Continuous
100
AcDbLine
 10
217.688169668022
 20
92.56913337762606
 30
0.0
 11
217.688169668022
 21
67.56913337762615
 31
0.0
  0
LINE
  5
953
102
{ACAD_REACTORS
330
A79
102
}
330
1F
100
AcDbEntity
  8
0
  6
Continuous
100
AcDbLine
 10
211.6881696680219
 20
92.56913337762606
 30
0.0
 11
217.688169668022
 21
92.56913337762606
 31
0.0
  0
LINE
  5
954
102
{ACAD_REACTORS
330
A79
102
}
330
1F
100
AcDbEntity
  8
0
  6
Continuous
100
AcDbLine
 10
173.6881696680221
 20
92.56913337762606
 30
0.0
 11
173.688169668022
 21
97.56913337761929
 31
0.0
  0
LINE
  5
955
102
{ACAD_REACTORS
330
A79
102
}
330
1F
100
AcDbEntity
  8
0
  6
Continuous
100
AcDbLine
 10
173.688169668022
 20
97.56913337761929
 30
0.0
 11
201.6881696680222
 21
97.56913337762064
 31
0.0
  0
LINE
  5
956
102
{ACAD_REACTORS
330
A79
102
}
330
1F
100
AcDbEntity
  8
0
  6
Continuous
100
AcDbLine
 10
201.6881696680222
 20
97.56913337762064
 30
0.0
 11
201.6881696680222
 21
92.56913337762094
 31
0.0
  0
ARC
  5
957
102
{ACAD_REACTORS
330
AB9
102
}
330
1F
100
AcDbEntity
  8
0
  6
Continuous
100
AcDbCircle
 10
630.7881696680198
 20
94.57175986015597
 30
0.0
 40
1.997373517478171
100
AcDbArc
 50
2.862405226117521
 51
177.1375947738825
  0
LINE
  5
958
102
{ACAD_REACTORS
330
AB9
102
}
330
1F
100
AcDbEntity
  8
0
  6
Continuous
100
AcDbLine
 10
632.7830511402139
 20
94.67150393376588
 30
0.0
 11
632.8406665488659
 21
93.5191957606861
 31
0.0
  0
ARC
  5
959
102
{ACAD_REACTORS
330
AB9
102
}
330
1F
100
AcDbEntity
  8
0
  6
Continuous
100
AcDbCircle
 10
633.8394188877439
 20
93.56913337762595
 30
0.0
 40
0.9999999999998863
100
AcDbArc
 50
182.8624052258811
 51
270.0
  0
LINE
  5
95A
102
{ACAD_REACTORS
330
AB9
102
}
330
1F
100
AcDbEntity
  8
0
  6
Continuous
100
AcDbLine
 10
633.8394188877439
 20
92.56913337762606
 30
0.0
 11
697.6881696680219
 21
92.56913337762606
 31
0.0
  0
LINE
  5
95B
102
{ACAD_REACTORS
330
AB9
102
}
330
1F
100
AcDbEntity
  8
0
  6
Continuous
100
AcDbLine
 10
697.6881696680219
 20
92.56913337762606
 30
0.0
 11
697.6881696680219
 21
67.56913337762615
 31
0.0
  0
LINE
  5
95C
102
{ACAD_REACTORS
330
AB9
102
}
330
1F
100
AcDbEntity
  8
0
  6
Continuous
100
AcDbLine
 10
697.6881696680219
 20
67.56913337762615
 30
0.0
 11
691.188169668022
 21
67.56913337762615
 31
0.0
  0
LINE
  5
95D
102
{ACAD_REACTORS
330
AB9
102
}
330
1F
100
AcDbEntity
  8
0
  6
Continuous
100
AcDbLine
 10
633.1881696680219
 20
62.56913337762625
 30
0.0
 11
691.188169668022
 21
62.56913337762625
 31
0.0
  0
LINE
  5
95E
102
{ACAD_REACTORS
330
AB9
102
}
330
1F
100
AcDbEntity
  8
0
  6
Continuous
100
AcDbLine
 10
633.1881696680219
 20
62.56913337762625
 30
0.0
 11
633.1881696680219
 21
67.56913337762615
 31
0.0
  0
LINE
  5
95F
102
{ACAD_REACTORS
330
AB9
102
}
330
1F
100
AcDbEntity
  8
0
  6
Continuous
100
AcDbLine
 10
628.6881696680199
 20
67.56913337762615
 30
0.0
 11
628.6881696680199
 21
92.56913337762606
 31
0.0
  0
LINE
  5
960
102
{ACAD_REACTORS
330
AB9
102
}
330
1F
100
AcDbEntity
  8
0
  6
Continuous
100
AcDbLine
 10
628.6881696680199
 20
92.56913337762606
 30
0.0
 11
628.7932881958259
 21
94.67150393376588
 31
0.0
  0
LINE
  5
961
102
{ACAD_REACTORS
330
AB9
102
}
330
1F
100
AcDbEntity
  8
0
  6
Continuous
100
AcDbLine
 10
633.1881696680219
 20
67.56913337762615
 30
0.0
 11
628.6881696680199
 21
67.56913337762615
 31
0.0
  0
LINE
  5
962
102
{ACAD_REACTORS
330
AB9
102
}
330
1F
100
AcDbEntity
  8
0
  6
Continuous
100
AcDbLine
 10
691.188169668022
 20
67.56913337762615
 30
0.0
 11
691.188169668022
 21
62.56913337762625
 31
0.0
  0
LINE
  5
963
102
{ACAD_REACTORS
330
A89
102
}
330
1F
100
AcDbEntity
  8
0
  6
Continuous
100
AcDbLine
 10
269.1881696680201
 20
62.56913337762625
 30
0.0
 11
321.188169668022
 21
62.56913337762625
 31
0.0
  0
LINE
  5
964
102
{ACAD_REACTORS
330
A89
102
}
330
1F
100
AcDbEntity
  8
0
  6
Continuous
100
AcDbLine
 10
269.1881696680201
 20
62.56913337762625
 30
0.0
 11
269.1881696680201
 21
67.56913337762615
 31
0.0
  0
LINE
  5
965
102
{ACAD_REACTORS
330
A89
102
}
330
1F
100
AcDbEntity
  8
0
  6
Continuous
100
AcDbLine
 10
269.1881696680201
 20
67.56913337762615
 30
0.0
 11
264.68816966802
 21
67.56913337762615
 31
0.0
  0
LINE
  5
966
102
{ACAD_REACTORS
330
A89
102
}
330
1F
100
AcDbEntity
  8
0
  6
Continuous
100
AcDbLine
 10
269.839418887745
 20
107.5691333776261
 30
0.0
 11
327.6881696680221
 21
107.5691333776261
 31
0.0
  0
LINE
  5
967
102
{ACAD_REACTORS
330
A89
102
}
330
1F
100
AcDbEntity
  8
0
  6
Continuous
100
AcDbLine
 10
264.68816966802
 20
67.56913337762615
 30
0.0
 11
264.68816966802
 21
107.5691333776261
 31
0.0
  0
LINE
  5
968
102
{ACAD_REACTORS
330
A89
102
}
330
1F
100
AcDbEntity
  8
0
  6
Continuous
100
AcDbLine
 10
327.6881696680221
 20
67.56913337762615
 30
0.0
 11
321.188169668022
 21
67.56913337762615
 31
0.0
  0
ARC
  5
969
102
{ACAD_REACTORS
330
A89
102
}
330
1F
100
AcDbEntity
  8
0
  6
Continuous
100
AcDbCircle
 10
269.839418887745
 20
108.569133377626
 30
0.0
 40
1.000000000000001
100
AcDbArc
 50
182.8624052259038
 51
270.0
  0
LINE
  5
96A
102
{ACAD_REACTORS
330
A89
102
}
330
1F
100
AcDbEntity
  8
0
  6
Continuous
100
AcDbLine
 10
327.6881696680221
 20
107.5691333776261
 30
0.0
 11
327.6881696680221
 21
67.56913337762615
 31
0.0
  0
LINE
  5
96B
102
{ACAD_REACTORS
330
A89
102
}
330
1F
100
AcDbEntity
  8
0
  6
Continuous
100
AcDbLine
 10
321.188169668022
 20
67.56913337762615
 30
0.0
 11
321.188169668022
 21
62.56913337762625
 31
0.0
  0
ARC
  5
96C
102
{ACAD_REACTORS
330
A89
102
}
330
1F
100
AcDbEntity
  8
0
  6
Continuous
100
AcDbCircle
 10
266.78816966802
 20
109.5717598601561
 30
0.0
 40
1.997373517478255
100
AcDbArc
 50
2.862405226119147
 51
177.1375947738825
  0
LINE
  5
96D
102
{ACAD_REACTORS
330
A89
102
}
330
1F
100
AcDbEntity
  8
0
  6
Continuous
100
AcDbLine
 10
264.68816966802
 20
107.5691333776261
 30
0.0
 11
264.7932881958259
 21
109.671503933766
 31
0.0
  0
LINE
  5
96E
102
{ACAD_REACTORS
330
A89
102
}
330
1F
100
AcDbEntity
  8
0
  6
Continuous
100
AcDbLine
 10
268.7830511402129
 20
109.671503933766
 30
0.0
 11
268.8406665488669
 21
108.5191957606858
 31
0.0
  0
LINE
  5
96F
102
{ACAD_REACTORS
330
AA9
102
}
330
1F
100
AcDbEntity
  8
0
  6
Continuous
100
AcDbLine
 10
571.1881696680221
 20
67.56913337762615
 30
0.0
 11
571.1881696680221
 21
62.56913337762625
 31
0.0
  0
LINE
  5
970
102
{ACAD_REACTORS
330
AA9
102
}
330
1F
100
AcDbEntity
  8
0
  6
Continuous
100
AcDbLine
 10
519.18816966802
 20
62.56913337762625
 30
0.0
 11
571.1881696680221
 21
62.56913337762625
 31
0.0
  0
LINE
  5
971
102
{ACAD_REACTORS
330
AA9
102
}
330
1F
100
AcDbEntity
  8
0
  6
Continuous
100
AcDbLine
 10
519.18816966802
 20
62.56913337762625
 30
0.0
 11
519.18816966802
 21
67.56913337762615
 31
0.0
  0
LINE
  5
972
102
{ACAD_REACTORS
330
AA9
102
}
330
1F
100
AcDbEntity
  8
0
  6
Continuous
100
AcDbLine
 10
519.18816966802
 20
67.56913337762615
 30
0.0
 11
514.688169668022
 21
67.56913337762615
 31
0.0
  0
LINE
  5
973
102
{ACAD_REACTORS
330
AA9
102
}
330
1F
100
AcDbEntity
  8
0
  6
Continuous
100
AcDbLine
 10
514.688169668022
 20
67.56913337762615
 30
0.0
 11
514.688169668022
 21
92.56913337762606
 31
0.0
  0
LINE
  5
974
102
{ACAD_REACTORS
330
AA9
102
}
330
1F
100
AcDbEntity
  8
0
  6
Continuous
100
AcDbLine
 10
514.688169668022
 20
92.56913337762606
 30
0.0
 11
514.7932881958259
 21
94.67150393376588
 31
0.0
  0
ARC
  5
975
102
{ACAD_REACTORS
330
AA9
102
}
330
1F
100
AcDbEntity
  8
0
  6
Continuous
100
AcDbCircle
 10
516.7881696680201
 20
94.57175986015597
 30
0.0
 40
1.997373517478342
100
AcDbArc
 50
2.862405226117521
 51
177.1375947738825
  0
LINE
  5
976
102
{ACAD_REACTORS
330
AA9
102
}
330
1F
100
AcDbEntity
  8
0
  6
Continuous
100
AcDbLine
 10
518.7830511402141
 20
94.67150393376588
 30
0.0
 11
518.840666548866
 21
93.5191957606861
 31
0.0
  0
ARC
  5
977
102
{ACAD_REACTORS
330
AA9
102
}
330
1F
100
AcDbEntity
  8
0
  6
Continuous
100
AcDbCircle
 10
519.8394188877439
 20
93.56913337762595
 30
0.0
 40
0.9999999999998863
100
AcDbArc
 50
182.8624052258811
 51
270.0
  0
LINE
  5
978
102
{ACAD_REACTORS
330
AA9
102
}
330
1F
100
AcDbEntity
  8
0
  6
Continuous
100
AcDbLine
 10
577.688169668022
 20
92.56913337762606
 30
0.0
 11
519.8394188877439
 21
92.56913337762606
 31
0.0
  0
LINE
  5
979
102
{ACAD_REACTORS
330
AA9
102
}
330
1F
100
AcDbEntity
  8
0
  6
Continuous
100
AcDbLine
 10
577.688169668022
 20
92.56913337762606
 30
0.0
 11
577.688169668022
 21
67.56913337762615
 31
0.0
  0
LINE
  5
97A
102
{ACAD_REACTORS
330
AA9
102
}
330
1F
100
AcDbEntity
  8
0
  6
Continuous
100
AcDbLine
 10
577.688169668022
 20
67.56913337762615
 30
0.0
 11
571.1881696680221
 21
67.56913337762615
 31
0.0
  0
ARC
  5
97B
102
{ACAD_REACTORS
330
A99
102
}
330
1F
100
AcDbEntity
  8
0
  6
Continuous
100
AcDbCircle
 10
386.78816966802
 20
164.5717598601558
 30
0.0
 40
1.997373517478165
100
AcDbArc
 50
2.862405226133785
 51
177.1375947738695
  0
LINE
  5
97C
102
{ACAD_REACTORS
330
A99
102
}
330
1F
100
AcDbEntity
  8
0
  6
Continuous
100
AcDbLine
 10
388.7830511402119
 20
164.6715039337661
 30
0.0
 11
388.8406665488659
 21
163.5191957606859
 31
0.0
  0
ARC
  5
97D
102
{ACAD_REACTORS
330
A99
102
}
330
1F
100
AcDbEntity
  8
0
  6
Continuous
100
AcDbCircle
 10
389.8394188877439
 20
163.5691333776262
 30
0.0
 40
1.000000000000326
100
AcDbArc
 50
182.8624052259055
 51
270.0
  0
LINE
  5
97E
102
{ACAD_REACTORS
330
A99
102
}
330
1F
100
AcDbEntity
  8
0
  6
Continuous
100
AcDbLine
 10
389.8394188877439
 20
162.5691333776259
 30
0.0
 11
447.6881696680219
 21
162.5691333776259
 31
0.0
  0
LINE
  5
97F
102
{ACAD_REACTORS
330
A99
102
}
330
1F
100
AcDbEntity
  8
0
  6
Continuous
100
AcDbLine
 10
447.6881696680219
 20
162.5691333776259
 30
0.0
 11
447.6881696680219
 21
67.56913337762615
 31
0.0
  0
LINE
  5
980
102
{ACAD_REACTORS
330
A99
102
}
330
1F
100
AcDbEntity
  8
0
  6
Continuous
100
AcDbLine
 10
447.6881696680219
 20
67.56913337762615
 30
0.0
 11
441.1881696680219
 21
67.56913337762615
 31
0.0
  0
LINE
  5
981
102
{ACAD_REACTORS
330
A99
102
}
330
1F
100
AcDbEntity
  8
0
  6
Continuous
100
AcDbLine
 10
441.1881696680219
 20
67.56913337762615
 30
0.0
 11
441.1881696680219
 21
62.56913337762625
 31
0.0
  0
LINE
  5
982
102
{ACAD_REACTORS
330
A99
102
}
330
1F
100
AcDbEntity
  8
0
  6
Continuous
100
AcDbLine
 10
389.1881696680199
 20
62.56913337762625
 30
0.0
 11
441.1881696680219
 21
62.56913337762625
 31
0.0
  0
LINE
  5
983
102
{ACAD_REACTORS
330
A99
102
}
330
1F
100
AcDbEntity
  8
0
  6
Continuous
100
AcDbLine
 10
389.1881696680199
 20
62.56913337762625
 30
0.0
 11
389.1881696680199
 21
67.56913337762615
 31
0.0
  0
LINE
  5
984
102
{ACAD_REACTORS
330
A99
102
}
330
1F
100
AcDbEntity
  8
0
  6
Continuous
100
AcDbLine
 10
389.1881696680199
 20
67.56913337762615
 30
0.0
 11
384.68816966802
 21
67.56913337762615
 31
0.0
  0
LINE
  5
985
102
{ACAD_REACTORS
330
A99
102
}
330
1F
100
AcDbEntity
  8
0
  6
Continuous
100
AcDbLine
 10
384.68816966802
 20
67.56913337762615
 30
0.0
 11
384.68816966802
 21
162.5691333776259
 31
0.0
  0
LINE
  5
986
102
{ACAD_REACTORS
330
A99
102
}
330
1F
100
AcDbEntity
  8
0
  6
Continuous
100
AcDbLine
 10
384.68816966802
 20
162.5691333776259
 30
0.0
 11
384.793288195826
 21
164.6715039337661
 31
0.0
  0
HATCH
  5
A65
330
1F
100
AcDbEntity
  8
1
100
AcDbHatch
 10
0.0
 20
0.0
 30
0.0
210
0.0
220
0.0
230
1.0
  2
ANSI37
 70
     0
 71
     1
 91
        1
 92
        7
 72
     1
 73
     1
 93
       12
 10
117.688169668022
 20
92.56913337762606
 42
0.0
 10
66.83941888774478
 20
92.56913337762599
 42
-0.3996556434457216
 10
65.84066654886697
 20
93.51919576068212
 42
0.0
 10
65.78305114021389
 20
94.67150393376551
 42
0.9512492197253006
 10
61.79328819582568
 20
94.67150393376462
 42
0.0
 10
61.68816966801981
 20
92.569133377626
 42
0.0
 10
61.68816966801981
 20
67.56913337762615
 42
0.0
 10
66.18816966801986
 20
67.56913337762615
 42
0.0
 10
66.18816966801986
 20
62.56913337762625
 42
0.0
 10
111.188169668022
 20
62.56913337762625
 42
0.0
 10
111.188169668022
 20
67.56913337762615
 42
0.0
 10
117.688169668022
 20
67.56913337762615
 42
0.0
 97
       12
330
93B
330
944
330
93F
330
93E
330
945
330
940
330
946
330
941
330
93C
330
93D
330
942
330
943
 75
     1
 76
     1
 52
0.0
 41
1.0
 77
     0
 78
     2
 53
45.0
 43
0.0
 44
0.0
 45
-2.245064030267288
 46
2.245064030267288
 79
     0
 53
135.0
 43
0.0
 44
0.0
 45
-2.245064030267288
 46
-2.245064030267287
 79
     0
 47
0.5864310353617153
 98
        1
 10
89.47574005921433
 20
70.47181118205753
1001
GradientColor1ACI
1070
     5
1001
GradientColor2ACI
1070
     2
1001
ACAD
1010
0.0
1020
0.0
1030
0.0
  0
HATCH
  5
A79
330
1F
100
AcDbEntity
  8
1
100
AcDbHatch
 10
0.0
 20
0.0
 30
0.0
210
0.0
220
0.0
230
1.0
  2
ANSI37
 70
     0
 71
     1
 91
        1
 92
        7
 72
     0
 73
     1
 93
       16
 10
217.688169668022
 20
92.56913337762606
 10
211.6881696680219
 20
92.56913337762606
 10
211.6881696680219
 20
97.56913337762595
 10
206.188169668022
 20
97.56913337762595
 10
206.188169668022
 20
92.56913337762538
 10
201.6881696680222
 20
92.56913337762094
 10
201.6881696680222
 20
97.56913337762064
 10
173.688169668022
 20
97.56913337761929
 10
173.6881696680221
 20
92.56913337762606
 10
167.6881696680221
 20
92.56913337762606
 10
167.6881696680221
 20
67.56913337762615
 10
176.1881696680219
 20
67.56913337762615
 10
176.1881696680219
 20
62.56913337762625
 10
211.188169668022
 20
62.56913337762625
 10
211.188169668022
 20
67.56913337762615
 10
217.688169668022
 20
67.56913337762615
 97
       16
330
953
330
947
330
951
330
950
330
94F
330
956
330
955
330
954
330
94E
330
94D
330
94C
330
94B
330
94A
330
949
330
948
330
952
 75
     1
 76
     1
 52
0.0
 41
1.0
 77
     0
 78
     2
 53
45.0
 43
0.0
 44
0.0
 45
-2.245064030267288
 46
2.245064030267288
 79
     0
 53
135.0
 43
0.0
 44
0.0
 45
-2.245064030267288
 46
-2.245064030267287
 79
     0
 47
0.5864310353617153
 98
        1
 10
187.4845581699055
 20
73.40396658502095
1001
GradientColor1ACI
1070
     5
1001
GradientColor2ACI
1070
     2
1001
ACAD
1010
0.0
1020
0.0
1030
0.0
  0
HATCH
  5
A89
330
1F
100
AcDbEntity
  8
1
100
AcDbHatch
 10
0.0
 20
0.0
 30
0.0
210
0.0
220
0.0
230
1.0
  2
ANSI37
 70
     0
 71
     1
 91
        1
 92
        7
 72
     1
 73
     1
 93
       12
 10
327.6881696680221
 20
107.5691333776261
 42
0.0
 10
269.839418887745
 20
107.569133377626
 42
-0.3996556434457065
 10
268.8406665488671
 20
108.5191957606822
 42
0.0
 10
268.783051140214
 20
109.6715039337657
 42
0.9512492197252925
 10
264.7932881958259
 20
109.6715039337648
 42
0.0
 10
264.68816966802
 20
107.5691333776262
 42
0.0
 10
264.68816966802
 20
67.56913337762615
 42
0.0
 10
269.1881696680201
 20
67.56913337762615
 42
0.0
 10
269.1881696680201
 20
62.56913337762625
 42
0.0
 10
321.188169668022
 20
62.56913337762625
 42
0.0
 10
321.188169668022
 20
67.56913337762615
 42
0.0
 10
327.6881696680221
 20
67.56913337762615
 42
0.0
 97
       12
330
966
330
969
330
96E
330
96C
330
96D
330
967
330
965
330
964
330
963
330
96B
330
968
330
96A
 75
     1
 76
     1
 52
0.0
 41
1.0
 77
     0
 78
     2
 53
45.0
 43
0.0
 44
0.0
 45
-2.245064030267288
 46
2.245064030267288
 79
     0
 53
135.0
 43
0.0
 44
0.0
 45
-2.245064030267288
 46
-2.245064030267287
 79
     0
 47
0.5864310353617153
 98
        1
 10
270.8214039878249
 20
93.34262281648717
1001
GradientColor1ACI
1070
     5
1001
GradientColor2ACI
1070
     2
1001
ACAD
1010
0.0
1020
0.0
1030
0.0
  0
HATCH
  5
A99
330
1F
100
AcDbEntity
  8
1
100
AcDbHatch
 10
0.0
 20
0.0
 30
0.0
210
0.0
220
0.0
230
1.0
  2
ANSI37
 70
     0
 71
     1
 91
        1
 92
        7
 72
     1
 73
     1
 93
       12
 10
447.6881696680219
 20
162.5691333776259
 42
0.0
 10
389.8394188877438
 20
162.5691333776259
 42
-0.3996556434456929
 10
388.8406665488657
 20
163.5191957606823
 42
0.0
 10
388.783051140214
 20
164.6715039337648
 42
0.9512492197254459
 10
384.7932881958259
 20
164.6715039337645
 42
0.0
 10
384.68816966802
 20
162.5691333776259
 42
0.0
 10
384.68816966802
 20
67.56913337762615
 42
0.0
 10
389.1881696680199
 20
67.56913337762615
 42
0.0
 10
389.1881696680199
 20
62.56913337762625
 42
0.0
 10
441.1881696680219
 20
62.56913337762625
 42
0.0
 10
441.1881696680219
 20
67.56913337762615
 42
0.0
 10
447.6881696680219
 20
67.56913337762615
 42
0.0
 97
       12
330
97E
330
97D
330
97C
330
97B
330
986
330
985
330
984
330
983
330
982
330
981
330
980
330
97F
 75
     1
 76
     1
 52
0.0
 41
1.0
 77
     0
 78
     2
 53
45.0
 43
0.0
 44
0.0
 45
-2.245064030267288
 46
2.245064030267288
 79
     0
 53
135.0
 43
0.0
 44
0.0
 45
-2.245064030267288
 46
-2.245064030267287
 79
     0
 47
0.5864310353617153
 98
        1
 10
427.5181362377979
 20
100.3797942575461
1001
GradientColor1ACI
1070
     5
1001
GradientColor2ACI
1070
     2
1001
ACAD
1010
0.0
1020
0.0
1030
0.0
  0
HATCH
  5
AA9
330
1F
100
AcDbEntity
  8
1
100
AcDbHatch
 10
0.0
 20
0.0
 30
0.0
210
0.0
220
0.0
230
1.0
  2
ANSI37
 70
     0
 71
     1
 91
        1
 92
        7
 72
     1
 73
     1
 93
       12
 10
577.688169668022
 20
92.56913337762606
 42
0.0
 10
519.8394188877439
 20
92.56913337762606
 42
-0.3996556434462146
 10
518.8406665488661
 20
93.51919576068381
 42
0.0
 10
518.7830511402145
 20
94.67150393376213
 42
0.9512492197265951
 10
514.7932881958259
 20
94.67150393376266
 42
0.0
 10
514.688169668022
 20
92.56913337762606
 42
0.0
 10
514.688169668022
 20
67.56913337762615
 42
0.0
 10
519.18816966802
 20
67.56913337762615
 42
0.0
 10
519.18816966802
 20
62.56913337762625
 42
0.0
 10
571.1881696680221
 20
62.56913337762625
 42
0.0
 10
571.1881696680221
 20
67.56913337762615
 42
0.0
 10
577.688169668022
 20
67.56913337762615
 42
0.0
 97
       12
330
978
330
977
330
976
330
975
330
974
330
973
330
972
330
971
330
970
330
96F
330
97A
330
979
 75
     1
 76
     1
 52
0.0
 41
1.0
 77
     0
 78
     2
 53
45.0
 43
0.0
 44
0.0
 45
-2.245064030267288
 46
2.245064030267288
 79
     0
 53
135.0
 43
0.0
 44
0.0
 45
-2.245064030267288
 46
-2.245064030267287
 79
     0
 47
0.5864310353617153
 98
        1
 10
533.1563854337328
 20
86.89188042128353
1001
GradientColor1ACI
1070
     5
1001
GradientColor2ACI
1070
     2
1001
ACAD
1010
0.0
1020
0.0
1030
0.0
  0
HATCH
  5
AB9
330
1F
100
AcDbEntity
  8
1
100
AcDbHatch
 10
0.0
 20
0.0
 30
0.0
210
0.0
220
0.0
230
1.0
  2
ANSI37
 70
     0
 71
     1
 91
        1
 92
        7
 72
     1
 73
     1
 93
       12
 10
697.6881696680219
 20
92.56913337762606
 42
0.0
 10
633.8394188877439
 20
92.56913337762606
 42
-0.3996556434461883
 10
632.8406665488661
 20
93.51919576068373
 42
0.0
 10
632.7830511402141
 20
94.67150393376231
 42
0.9512492197260622
 10
628.7932881958258
 20
94.67150393376471
 42
0.0
 10
628.6881696680199
 20
92.56913337762615
 42
0.0
 10
628.6881696680199
 20
67.56913337762615
 42
0.0
 10
633.1881696680219
 20
67.56913337762615
 42
0.0
 10
633.1881696680219
 20
62.56913337762625
 42
0.0
 10
691.188169668022
 20
62.56913337762625
 42
0.0
 10
691.188169668022
 20
67.56913337762615
 42
0.0
 10
697.6881696680219
 20
67.56913337762615
 42
0.0
 97
       12
330
95A
330
959
330
958
330
957
330
960
330
95F
330
961
330
95E
330
95D
330
962
330
95C
330
95B
 75
     1
 76
     1
 52
0.0
 41
1.0
 77
     0
 78
     2
 53
45.0
 43
0.0
 44
0.0
 45
-2.245064030267288
 46
2.245064030267288
 79
     0
 53
135.0
 43
0.0
 44
0.0
 45
-2.245064030267288
 46
-2.245064030267287
 79
     0
 47
0.5864310353617153
 98
        1
 10
652.2928583772499
 20
72.81753753916518
1001
GradientColor1ACI
1070
     5
1001
GradientColor2ACI
1070
     2
1001
ACAD
1010
0.0
1020
0.0
1030
0.0
  0
DIMENSION
  5
AEB
330
1F
100
AcDbEntity
  8
размеры
100
AcDbDimension
280
     0
  2
*D3
 10
117.688169668022
 20
56.45263746402907
 30
0.0
 11
89.68816966802089
 21
56.45263746402907
 31
0.0
 70
   160
 71
     5
 42
56.00000000000216
 73
     0
 74
     0
 75
     0
  3
ISO-25
100
AcDbAlignedDimension
 13
61.68816966801981
 23
67.56913337762615
 33
0.0
 14
117.688169668022
 24
67.56913337762615
 34
0.0
100
AcDbRotatedDimension
  0
DIMENSION
  5
AF8
330
1F
100
AcDbEntity
  8
размеры
100
AcDbDimension
280
     0
  2
*D4
 10
125.1877537930141
 20
92.56913337762609
 30
0.0
 11
123.3127537930141
 21
77.56913337762613
 31
0.0
 70
    32
 71
     5
 42
29.9999999999998
 73
     0
 74
     0
 75
     0
  3
ISO-25
100
AcDbAlignedDimension
 13
111.188169668022
 23
62.56913337762625
 33
0.0
 14
117.688169668022
 24
92.56913337762606
 34
0.0
 50
90.0
100
AcDbRotatedDimension
  0
DIMENSION
  5
B1C
330
1F
100
AcDbEntity
  8
размеры
100
AcDbDimension
280
     0
  2
*D5
 10
217.688169668022
 20
55.68016750507149
 30
0.0
 11
192.6881696680221
 21
57.55516750507149
 31
0.0
 70
    32
 71
     5
 42
49.99999999999994
 73
     0
 74
     0
 75
     0
  3
ISO-25
100
AcDbAlignedDimension
 13
167.6881696680221
 23
67.56913337762615
 33
0.0
 14
217.688169668022
 24
67.56913337762615
 34
0.0
100
AcDbRotatedDimension
  0
DIMENSION
  5
B29
330
1F
100
AcDbEntity
  8
размеры
100
AcDbDimension
280
     0
  2
*D6
 10
225.3585116203341
 20
92.56913337762609
 30
0.0
 11
223.4835116203341
 21
77.56913337762611
 31
0.0
 70
    32
 71
     5
 42
29.99999999999981
 73
     0
 74
     0
 75
     0
  3
ISO-25
100
AcDbAlignedDimension
 13
211.188169668022
 23
62.56913337762625
 33
0.0
 14
217.688169668022
 24
92.56913337762606
 34
0.0
 50
90.0
100
AcDbRotatedDimension
  0
DIMENSION
  5
B36
330
1F
100
AcDbEntity
  8
размеры
100
AcDbDimension
280
     0
  2
*D7
 10
327.6881696680221
 20
55.70581282321928
 30
0.0
 11
296.188169668021
 21
57.58081282321928
 31
0.0
 70
    32
 71
     5
 42
63.00000000000204
 73
     0
 74
     0
 75
     0
  3
ISO-25
100
AcDbAlignedDimension
 13
264.68816966802
 23
67.56913337762615
 33
0.0
 14
327.6881696680221
 24
67.56913337762615
 34
0.0
100
AcDbRotatedDimension
  0
DIMENSION
  5
B43
330
1F
100
AcDbEntity
  8
размеры
100
AcDbDimension
280
     0
  2
*D8
 10
335.535123275714
 20
107.5691333776262
 30
0.0
 11
333.660123275714
 21
85.06913337762616
 31
0.0
 70
    32
 71
     5
 42
44.99999999999992
 73
     0
 74
     0
 75
     0
  3
ISO-25
100
AcDbAlignedDimension
 13
321.188169668022
 23
62.56913337762625
 33
0.0
 14
327.6881696680221
 24
107.5691333776261
 34
0.0
 50
90.0
100
AcDbRotatedDimension
  0
DIMENSION
  5
B50
330
1F
100
AcDbEntity
  8
размеры
100
AcDbDimension
280
     0
  2
*D9
 10
447.6881696680219
 20
55.70581282321928
 30
0.0
 11
416.1881696680209
 21
57.58081282321928
 31
0.0
 70
    32
 71
     5
 42
63.00000000000193
 73
     0
 74
     0
 75
     0
  3
ISO-25
100
AcDbAlignedDimension
 13
384.68816966802
 23
67.56913337762615
 33
0.0
 14
447.6881696680219
 24
67.56913337762615
 34
0.0
100
AcDbRotatedDimension
  0
DIMENSION
  5
B5D
330
1F
100
AcDbEntity
  8
размеры
100
AcDbDimension
280
     0
  2
*D10
 10
455.1501740725482
 20
162.569133377626
 30
0.0
 11
453.2751740725482
 21
112.569133377626
 31
0.0
 70
    32
 71
     5
 42
99.99999999999969
 73
     0
 74
     0
 75
     0
  3
ISO-25
100
AcDbAlignedDimension
 13
441.1881696680219
 23
62.56913337762625
 33
0.0
 14
447.6881696680219
 24
162.5691333776259
 34
0.0
 50
90.0
100
AcDbRotatedDimension
  0
DIMENSION
  5
B6A
330
1F
100
AcDbEntity
  8
размеры
100
AcDbDimension
280
     0
  2
*D11
 10
577.688169668022
 20
55.70581282321928
 30
0.0
 11
546.1881696680221
 21
57.58081282321928
 31
0.0
 70
    32
 71
     5
 42
63.0
 73
     0
 74
     0
 75
     0
  3
ISO-25
100
AcDbAlignedDimension
 13
514.688169668022
 23
67.56913337762615
 33
0.0
 14
577.688169668022
 24
67.56913337762615
 34
0.0
100
AcDbRotatedDimension
  0
DIMENSION
  5
B77
330
1F
100
AcDbEntity
  8
размеры
100
AcDbDimension
280
     0
  2
*D12
 10
584.6648515172176
 20
92.56913337762609
 30
0.0
 11
582.7898515172174
 21
77.569133377626
 31
0.0
 70
    32
 71
     5
 42
29.9999999999998
 73
     0
 74
     0
 75
     0
  3
ISO-25
100
AcDbAlignedDimension
 13
571.1881696680221
 23
62.56913337762625
 33
0.0
 14
577.688169668022
 24
92.56913337762606
 34
0.0
 50
90.0
100
AcDbRotatedDimension
  0
DIMENSION
  5
B84
330
1F
100
AcDbEntity
  8
размеры
100
AcDbDimension
280
     0
  2
*D13
 10
697.6881696680219
 20
55.70581282321928
 30
0.0
 11
663.1881696680209
 21
57.58081282321928
 31
0.0
 70
    32
 71
     5
 42
69.00000000000193
 73
     0
 74
     0
 75
     0
  3
ISO-25
100
AcDbAlignedDimension
 13
628.6881696680199
 23
67.56913337762615
 33
0.0
 14
697.6881696680219
 24
67.56913337762615
 34
0.0
100
AcDbRotatedDimension
  0
DIMENSION
  5
B91
330
1F
100
AcDbEntity
  8
размеры
100
AcDbDimension
280
     0
  2
*D14
 10
704.4790361431434
 20
92.56913337762609
 30
0.0
 11
702.6040361431434
 21
77.56913337762597
 31
0.0
 70
    32
 71
     5
 42
29.9999999999998
 73
     0
 74
     0
 75
     0
  3
ISO-25
100
AcDbAlignedDimension
 13
691.188169668022
 23
62.56913337762625
 33
0.0
 14
697.6881696680219
 24
92.56913337762606
 34
0.0
 50
90.0
100
AcDbRotatedDimension
  0
ENDSEC
  0
SECTION
  2
OBJECTS
  0
DICTIONARY
  5
C
330
0
100
AcDbDictionary
281
     1
  3
ACAD_CIP_PREVIOUS_PRODUCT_INFO
350
9D2
  3
ACAD_COLOR
350
9C7
  3
ACAD_DETAILVIEWSTYLE
350
9CE
  3
ACAD_GROUP
350
D
  3
ACAD_LAYOUT
350
1A
  3
ACAD_MATERIAL
350
995
  3
ACAD_MLEADERSTYLE
350
9CA
  3
ACAD_MLINESTYLE
350
17
  3
ACAD_PLOTSETTINGS
350
19
  3
ACAD_PLOTSTYLENAME
350
E
  3
ACAD_SCALELIST
350
47
  3
ACAD_SECTIONVIEWSTYLE
350
9CC
  3
ACAD_TABLESTYLE
350
9C8
  3
ACAD_VISUALSTYLE
350
9AE
  3
ACDB_RECOMPOSE_DATA
350
BC5
  3
AcDbVariableDictionary
350
9D4
  3
Siberia
350
BC1
  0
DICTIONARY
  5
9E3
330
2
100
AcDbDictionary
280
     1
281
     1
  3
ACAD_LAYERSTATES
360
9E4
  0
DICTIONARY
  5
9DE
330
10
100
AcDbDictionary
280
     1
281
     1
  3
ADSK_XREC_LAYER_RECONCILED
360
9DF
  0
DICTIONARY
  5
A5E
330
1F
100
AcDbDictionary
280
     1
281
     1
  3
ACAD_SORTENTS
360
A5F
  0
XRECORD
  5
9D2
102
{ACAD_REACTORS
330
C
102
}
330
C
100
AcDbXrecord
280
     1
300
ACD
300
2017
300
ACD_F_S
  0
DICTIONARY
  5
9C7
102
{ACAD_REACTORS
330
C
102
}
330
C
100
AcDbDictionary
281
     1
  0
DICTIONARY
  5
9CE
102
{ACAD_REACTORS
330
C
102
}
330
C
100
AcDbDictionary
281
     1
  3
Metric50
350
9CF
  0
DICTIONARY
  5
D
102
{ACAD_REACTORS
330
C
102
}
330
C
100
AcDbDictionary
281
     1
  0
DICTIONARY
  5
1A
102
{ACAD_REACTORS
330
C
102
}
330
C
100
AcDbDictionary
281
     1
  3
Layout1
350
1E
  3
Layout2
350
26
  3
Model
350
22
  0
DICTIONARY
  5
995
102
{ACAD_REACTORS
330
C
102
}
330
C
100
AcDbDictionary
281
     1
  3
ByBlock
350
99E
  3
ByLayer
350
996
  3
Global
350
9A6
  0
DICTIONARY
  5
9CA
102
{ACAD_REACTORS
330
C
102
}
330
C
100
AcDbDictionary
281
     1
  3
Standard
350
9CB
  0
DICTIONARY
  5
17
102
{ACAD_REACTORS
330
C
102
}
330
C
100
AcDbDictionary
281
     1
  3
Standard
350
18
  0
DICTIONARY
  5
19
102
{ACAD_REACTORS
330
C
102
}
330
C
100
AcDbDictionary
281
     1
  0
ACDBDICTIONARYWDFLT
  5
E
102
{ACAD_REACTORS
330
C
102
}
330
C
100
AcDbDictionary
281
     1
  3
Normal
350
F
100
AcDbDictionaryWithDefault
340
F
  0
DICTIONARY
  5
47
102
{ACAD_REACTORS
330
C
102
}
330
C
100
AcDbDictionary
281
     1
  3
A0
350
48
  3
A1
350
49
  3
A2
350
4A
  3
A3
350
4B
  3
A4
350
4C
  3
A5
350
4D
  3
A6
350
4E
  3
A7
350
4F
  3
A8
350
50
  3
A9
350
51
  3
B0
350
52
  3
B1
350
53
  3
B2
350
54
  3
B3
350
55
  3
B4
350
56
  3
B5
350
57
  3
B6
350
58
  3
B7
350
59
  3
B8
350
5A
  3
B9
350
5B
  3
C0
350
5C
  3
C1
350
5D
  3
C2
350
5E
  3
C3
350
5F
  3
C4
350
60
  3
C5
350
61
  3
C6
350
62
  3
C7
350
63
  3
C8
350
64
  3
C9
350
65
  3
D0
350
66
  3
D1
350
67
  3
D2
350
68
  0
DICTIONARY
  5
9CC
102
{ACAD_REACTORS
330
C
102
}
330
C
100
AcDbDictionary
281
     1
  3
Metric50
350
9CD
  0
DICTIONARY
  5
9C8
102
{ACAD_REACTORS
330
C
102
}
330
C
100
AcDbDictionary
281
     1
  3
Standard
350
9C9
  0
DICTIONARY
  5
9AE
102
{ACAD_REACTORS
330
C
102
}
330
C
100
AcDbDictionary
281
     1
  3
2dWireframe
350
9B4
  3
Basic
350
9B3
  3
Brighten
350
9BA
  3
ColorChange
350
9BE
  3
Conceptual
350
9B7
  3
Dim
350
9B9
  3
EdgeColorOff
350
9C6
  3
Facepattern
350
9BD
  3
Flat
350
9AF
  3
FlatWithEdges
350
9B0
  3
Gouraud
350
9B1
  3
GouraudWithEdges
350
9B2
  3
Hidden
350
9B6
  3
JitterOff
350
9C4
  3
Linepattern
350
9BC
  3
OverhangOff
350
9C5
  3
Realistic
350
9B8
  3
Shaded
350
9C3
  3
Shaded with edges
350
9C2
  3
Shades of Gray
350
9BF
  3
Sketchy
350
9C0
  3
Thicken
350
9BB
  3
Wireframe
350
9B5
  3
X-Ray
350
9C1
  0
XRECORD
  5
BC5
102
{ACAD_REACTORS
330
C
102
}
330
C
100
AcDbXrecord
280
     1
 90
        1
330
9C9
330
9CD
330
9CF
  0
DICTIONARY
  5
9D4
102
{ACAD_REACTORS
330
C
102
}
330
C
100
AcDbDictionary
281
     1
  3
CANNOSCALE
350
9DA
  3
CMLEADERSTYLE
350
9D6
  3
CTABLESTYLE
350
9D5
  3
CVIEWDETAILSTYLE
350
9D7
  3
CVIEWSECTIONSTYLE
350
9D8
  3
HPCOLOR
350
A61
  3
HPTRANSPARENCY
350
A60
  3
LAYEREVAL
350
9DC
  3
LAYERNOTIFY
350
9DD
  3
LIGHTINGUNITS
350
9DB
  3
MSLTSCALE
350
9D9
  0
DICTIONARY
  5
BC1
102
{ACAD_REACTORS
330
C
102
}
330
C
100
AcDbDictionary
280
     1
281
     1
  3
Styles
360
BC2
  0
DICTIONARY
  5
9E4
102
{ACAD_REACTORS
330
9E3
102
}
330
9E3
100
AcDbDictionary
281
     1
  0
XRECORD
  5
9DF
102
{ACAD_REACTORS
330
9DE
102
}
330
9DE
100
AcDbXrecord
280
     1
290
     1
  0
SORTENTSTABLE
  5
A5F
102
{ACAD_REACTORS
330
A5E
102
}
330
A5E
100
AcDbSortentsTable
330
1F
331
968
  5
972
331
963
  5
96D
331
970
  5
97C
331
97E
  5
A7D
331
941
  5
943
331
93B
  5
93D
331
986
  5
AAC
331
94C
  5
952
331
95A
  5
962
331
954
  5
95A
331
962
  5
96B
331
AA9
  5
97A
331
96F
  5
97B
331
AB9
  5
95E
331
97D
  5
A7C
331
977
  5
986
331
940
  5
942
331
985
  5
AAA
331
94B
  5
951
331
A65
  5
93C
331
959
  5
961
331
953
  5
959
331
961
  5
96A
331
96E
  5
979
331
97C
  5
A7A
331
976
  5
982
331
94A
  5
950
331
984
  5
A9C
331
947
  5
94D
331
958
  5
960
331
952
  5
958
331
A89
  5
96C
331
960
  5
968
331
A99
  5
A67
331
96D
  5
978
331
97B
  5
A68
331
975
  5
981
331
949
  5
94F
331
983
  5
A9B
331
946
  5
948
331
951
  5
957
331
95F
  5
967
331
96C
  5
976
331
967
  5
971
331
97A
  5
A66
331
974
  5
980
331
948
  5
94E
331
982
  5
A9A
331
945
  5
947
331
93F
  5
941
331
950
  5
956
331
95E
  5
966
331
96B
  5
975
331
966
  5
970
331
979
  5
A52
331
973
  5
97F
331
981
  5
A8C
331
944
  5
946
331
93E
  5
940
331
94F
  5
955
331
A79
  5
94C
331
95D
  5
965
331
957
  5
95F
331
96A
  5
974
331
965
  5
96F
331
978
  5
A50
331
972
  5
97E
331
980
  5
A8B
331
943
  5
945
331
93D
  5
93F
331
94E
  5
954
331
95C
  5
964
331
956
  5
95C
331
969
  5
973
331
964
  5
96E
331
971
  5
97D
331
97F
  5
A8A
331
942
  5
944
331
93C
  5
93E
331
94D
  5
953
331
95B
  5
963
331
955
  5
95B
  0
ACDBDETAILVIEWSTYLE
  5
9CF
102
{ACAD_XDICTIONARY
360
BBB
102
}
102
{ACAD_REACTORS
330
9CE
102
}
330
9CE
100
AcDbModelDocViewStyle
 70
     0
  3
Metric50
290
     0
100
AcDbDetailViewStyle
 70
     0
 71
     0
 90
        3
 71
     1
340
11
 62
   256
 40
5.0
340
0
 62
   256
 40
5.0
300

 40
0.0
280
     1
 71
     2
340
16
 90
       25
 62
   256
 71
     3
340
11
 62
   256
 40
5.0
 90
        0
 40
15.0
 90
        1
300
%<\AcVar ViewDetailId>% (%<\AcVar ViewScale \f "%sn">%)
 71
     4
340
16
 90
       25
 62
   256
340
16
 90
       25
 62
   256
280
     0
  0
LAYOUT
  5
1E
102
{ACAD_REACTORS
330
1A
102
}
330
1A
100
AcDbPlotSettings
  1

  2
none_device
  4

  6

 40
0.0
 41
0.0
 42
0.0
 43
0.0
 44
0.0
 45
0.0
 46
0.0
 47
0.0
 48
0.0
 49
0.0
140
0.0
141
0.0
142
1.0
143
1.0
 70
   688
 72
     1
 73
     0
 74
     5
  7

 75
    16
147
1.0
 76
     0
 77
     2
 78
   300
148
0.0
149
0.0
100
AcDbLayout
  1
Layout1
 70
     1
 71
     1
 10
0.0
 20
0.0
 11
420.0
 21
297.0
 12
0.0
 22
0.0
 32
0.0
 14
1.000000000000000E+20
 24
1.000000000000000E+20
 34
1.000000000000000E+20
 15
-1.000000000000000E+20
 25
-1.000000000000000E+20
 35
-1.000000000000000E+20
146
0.0
 13
0.0
 23
0.0
 33
0.0
 16
1.0
 26
0.0
 36
0.0
 17
0.0
 27
1.0
 37
0.0
 76
     0
330
1B
  0
LAYOUT
  5
26
102
{ACAD_REACTORS
330
1A
102
}
330
1A
100
AcDbPlotSettings
  1

  2
none_device
  4

  6

 40
0.0
 41
0.0
 42
0.0
 43
0.0
 44
0.0
 45
0.0
 46
0.0
 47
0.0
 48
0.0
 49
0.0
140
0.0
141
0.0
142
1.0
143
1.0
 70
   688
 72
     1
 73
     0
 74
     5
  7

 75
    16
147
1.0
 76
     0
 77
     2
 78
   300
148
0.0
149
0.0
100
AcDbLayout
  1
Layout2
 70
     1
 71
     2
 10
0.0
 20
0.0
 11
0.0
 21
0.0
 12
0.0
 22
0.0
 32
0.0
 14
0.0
 24
0.0
 34
0.0
 15
0.0
 25
0.0
 35
0.0
146
0.0
 13
0.0
 23
0.0
 33
0.0
 16
1.0
 26
0.0
 36
0.0
 17
0.0
 27
1.0
 37
0.0
 76
     0
330
23
  0
LAYOUT
  5
22
102
{ACAD_REACTORS
330
1A
102
}
330
1A
100
AcDbPlotSettings
  1

  2
none_device
  4
Letter_(8.50_x_11.00_Inches)
  6

 40
6.349999999999999
 41
6.349999999999999
 42
6.350005079999999
 43
6.350005079999999
 44
215.9
 45
279.4
 46
0.0
 47
0.0
 48
0.0
 49
0.0
140
0.0
141
0.0
142
1.0
143
1.0
 70
  1712
 72
     1
 73
     0
 74
     0
  7

 75
     0
147
1.0
 76
     0
 77
     2
 78
   300
148
0.0
149
0.0
100
AcDbLayout
  1
Model
 70
     1
 71
     0
 10
0.0
 20
0.0
 11
431.7999999999999
 21
279.4
 12
0.0
 22
0.0
 32
0.0
 14
0.0
 24
0.0
 34
0.0
 15
431.7999999999999
 25
279.4
 35
0.0
146
0.0
 13
0.0
 23
0.0
 33
0.0
 16
1.0
 26
0.0
 36
0.0
 17
0.0
 27
1.0
 37
0.0
 76
     0
330
1F
331
29
  0
MATERIAL
  5
99E
102
{ACAD_XDICTIONARY
360
99F
102
}
102
{ACAD_REACTORS
330
995
102
}
330
995
100
AcDbMaterial
  1
ByBlock
 72
     0
 43
0.0008202099737533
 43
0.0
 43
0.0
 43
0.0
 43
0.0
 43
0.0008202099737533
 43
0.0
 43
0.0
 43
0.0
 43
0.0
 43
1.0
 43
0.0
 43
0.0
 43
0.0
 43
0.0
 43
1.0
 77
     0
 47
0.0008202099737533
 47
0.0
 47
0.0
 47
0.0
 47
0.0
 47
0.0008202099737533
 47
0.0
 47
0.0
 47
0.0
 47
0.0
 47
1.0
 47
0.0
 47
0.0
 47
0.0
 47
0.0
 47
1.0
171
     0
 49
0.0008202099737533
 49
0.0
 49
0.0
 49
0.0
 49
0.0
 49
0.0008202099737533
 49
0.0
 49
0.0
 49
0.0
 49
0.0
 49
1.0
 49
0.0
 49
0.0
 49
0.0
 49
0.0
 49
1.0
175
     0
142
0.0008202099737533
142
0.0
142
0.0
142
0.0
142
0.0
142
0.0008202099737533
142
0.0
142
0.0
142
0.0
142
0.0
142
1.0
142
0.0
142
0.0
142
0.0
142
0.0
142
1.0
179
     0
144
0.0008202099737533
144
0.0
144
0.0
144
0.0
144
0.0
144
0.0008202099737533
144
0.0
144
0.0
144
0.0
144
0.0
144
1.0
144
0.0
144
0.0
144
0.0
144
0.0
144
1.0
147
0.0008202099737533
147
0.0
147
0.0
147
0.0
147
0.0
147
0.0008202099737533
147
0.0
147
0.0
147
0.0
147
0.0
147
1.0
147
0.0
147
0.0
147
0.0
147
0.0
147
1.0
  0
MATERIAL
  5
996
102
{ACAD_XDICTIONARY
360
997
102
}
102
{ACAD_REACTORS
330
995
102
}
330
995
100
AcDbMaterial
  1
ByLayer
 72
     0
 43
0.0008202099737533
 43
0.0
 43
0.0
 43
0.0
 43
0.0
 43
0.0008202099737533
 43
0.0
 43
0.0
 43
0.0
 43
0.0
 43
1.0
 43
0.0
 43
0.0
 43
0.0
 43
0.0
 43
1.0
 77
     0
 47
0.0008202099737533
 47
0.0
 47
0.0
 47
0.0
 47
0.0
 47
0.0008202099737533
 47
0.0
 47
0.0
 47
0.0
 47
0.0
 47
1.0
 47
0.0
 47
0.0
 47
0.0
 47
0.0
 47
1.0
171
     0
 49
0.0008202099737533
 49
0.0
 49
0.0
 49
0.0
 49
0.0
 49
0.0008202099737533
 49
0.0
 49
0.0
 49
0.0
 49
0.0
 49
1.0
 49
0.0
 49
0.0
 49
0.0
 49
0.0
 49
1.0
175
     0
142
0.0008202099737533
142
0.0
142
0.0
142
0.0
142
0.0
142
0.0008202099737533
142
0.0
142
0.0
142
0.0
142
0.0
142
1.0
142
0.0
142
0.0
142
0.0
142
0.0
142
1.0
179
     0
144
0.0008202099737533
144
0.0
144
0.0
144
0.0
144
0.0
144
0.0008202099737533
144
0.0
144
0.0
144
0.0
144
0.0
144
1.0
144
0.0
144
0.0
144
0.0
144
0.0
144
1.0
147
0.0008202099737533
147
0.0
147
0.0
147
0.0
147
0.0
147
0.0008202099737533
147
0.0
147
0.0
147
0.0
147
0.0
147
1.0
147
0.0
147
0.0
147
0.0
147
0.0
147
1.0
  0
MATERIAL
  5
9A6
102
{ACAD_XDICTIONARY
360
9A7
102
}
102
{ACAD_REACTORS
330
995
102
}
330
995
100
AcDbMaterial
  1
Global
 72
     0
 43
0.0008202099737533
 43
0.0
 43
0.0
 43
0.0
 43
0.0
 43
0.0008202099737533
 43
0.0
 43
0.0
 43
0.0
 43
0.0
 43
1.0
 43
0.0
 43
0.0
 43
0.0
 43
0.0
 43
1.0
 77
     0
 47
0.0008202099737533
 47
0.0
 47
0.0
 47
0.0
 47
0.0
 47
0.0008202099737533
 47
0.0
 47
0.0
 47
0.0
 47
0.0
 47
1.0
 47
0.0
 47
0.0
 47
0.0
 47
0.0
 47
1.0
171
     0
 49
0.0008202099737533
 49
0.0
 49
0.0
 49
0.0
 49
0.0
 49
0.0008202099737533
 49
0.0
 49
0.0
 49
0.0
 49
0.0
 49
1.0
 49
0.0
 49
0.0
 49
0.0
 49
0.0
 49
1.0
175
     0
142
0.0008202099737533
142
0.0
142
0.0
142
0.0
142
0.0
142
0.0008202099737533
142
0.0
142
0.0
142
0.0
142
0.0
142
1.0
142
0.0
142
0.0
142
0.0
142
0.0
142
1.0
179
     0
144
0.0008202099737533
144
0.0
144
0.0
144
0.0
144
0.0
144
0.0008202099737533
144
0.0
144
0.0
144
0.0
144
0.0
144
1.0
144
0.0
144
0.0
144
0.0
144
0.0
144
1.0
147
0.0008202099737533
147
0.0
147
0.0
147
0.0
147
0.0
147
0.0008202099737533
147
0.0
147
0.0
147
0.0
147
0.0
147
1.0
147
0.0
147
0.0
147
0.0
147
0.0
147
1.0
  0
MLEADERSTYLE
  5
9CB
102
{ACAD_REACTORS
330
9CA
102
}
330
9CA
100
AcDbMLeaderStyle
179
     2
170
     2
171
     1
172
     0
 90
        2
 40
0.0
 41
0.0
173
     1
 91
-1056964608
340
14
 92
       -2
290
     1
 42
2.0
291
     1
 43
0.36
  3
Standard
 44
4.0
300

342
11
174
     1
178
     6
175
     1
176
     0
 93
-1056964608
 45
4.0
292
     0
297
     0
 46
4.0
 94
-1056964608
 47
1.0
 49
1.0
140
1.0
293
     1
141
0.0
294
     1
177
     0
142
1.0
295
     0
296
     0
143
0.125
271
     0
272
     9
273
     9
298
     1
  0
MLINESTYLE
  5
18
102
{ACAD_REACTORS
330
17
102
}
330
17
100
AcDbMlineStyle
  2
STANDARD
 70
     0
  3

 62
   256
 51
90.0
 52
90.0
 71
     2
 49
0.5
 62
   256
  6
BYLAYER
 49
-0.5
 62
   256
  6
BYLAYER
  0
ACDBPLACEHOLDER
  5
F
102
{ACAD_REACTORS
330
E
102
}
330
E
  0
SCALE
  5
48
102
{ACAD_REACTORS
330
47
102
}
330
47
100
AcDbScale
 70
     0
300
1:1
140
1.0
141
1.0
290
     1
  0
SCALE
  5
49
102
{ACAD_REACTORS
330
47
102
}
330
47
100
AcDbScale
 70
     0
300
1:2
140
1.0
141
2.0
290
     0
  0
SCALE
  5
4A
102
{ACAD_REACTORS
330
47
102
}
330
47
100
AcDbScale
 70
     0
300
1:4
140
1.0
141
4.0
290
     0
  0
SCALE
  5
4B
102
{ACAD_REACTORS
330
47
102
}
330
47
100
AcDbScale
 70
     0
300
1:5
140
1.0
141
5.0
290
     0
  0
SCALE
  5
4C
102
{ACAD_REACTORS
330
47
102
}
330
47
100
AcDbScale
 70
     0
300
1:8
140
1.0
141
8.0
290
     0
  0
SCALE
  5
4D
102
{ACAD_REACTORS
330
47
102
}
330
47
100
AcDbScale
 70
     0
300
1:10
140
1.0
141
10.0
290
     0
  0
SCALE
  5
4E
102
{ACAD_REACTORS
330
47
102
}
330
47
100
AcDbScale
 70
     0
300
1:16
140
1.0
141
16.0
290
     0
  0
SCALE
  5
4F
102
{ACAD_REACTORS
330
47
102
}
330
47
100
AcDbScale
 70
     0
300
1:20
140
1.0
141
20.0
290
     0
  0
SCALE
  5
50
102
{ACAD_REACTORS
330
47
102
}
330
47
100
AcDbScale
 70
     0
300
1:30
140
1.0
141
30.0
290
     0
  0
SCALE
  5
51
102
{ACAD_REACTORS
330
47
102
}
330
47
100
AcDbScale
 70
     0
300
1:40
140
1.0
141
40.0
290
     0
  0
SCALE
  5
52
102
{ACAD_REACTORS
330
47
102
}
330
47
100
AcDbScale
 70
     0
300
1:50
140
1.0
141
50.0
290
     0
  0
SCALE
  5
53
102
{ACAD_REACTORS
330
47
102
}
330
47
100
AcDbScale
 70
     0
300
1:100
140
1.0
141
100.0
290
     0
  0
SCALE
  5
54
102
{ACAD_REACTORS
330
47
102
}
330
47
100
AcDbScale
 70
     0
300
2:1
140
2.0
141
1.0
290
     0
  0
SCALE
  5
55
102
{ACAD_REACTORS
330
47
102
}
330
47
100
AcDbScale
 70
     0
300
4:1
140
4.0
141
1.0
290
     0
  0
SCALE
  5
56
102
{ACAD_REACTORS
330
47
102
}
330
47
100
AcDbScale
 70
     0
300
8:1
140
8.0
141
1.0
290
     0
  0
SCALE
  5
57
102
{ACAD_REACTORS
330
47
102
}
330
47
100
AcDbScale
 70
     0
300
10:1
140
10.0
141
1.0
290
     0
  0
SCALE
  5
58
102
{ACAD_REACTORS
330
47
102
}
330
47
100
AcDbScale
 70
     0
300
100:1
140
100.0
141
1.0
290
     0
  0
SCALE
  5
59
102
{ACAD_REACTORS
330
47
102
}
330
47
100
AcDbScale
 70
     0
300
1/128" = 1'-0"
140
0.0078125
141
12.0
290
     0
  0
SCALE
  5
5A
102
{ACAD_REACTORS
330
47
102
}
330
47
100
AcDbScale
 70
     0
300
1/64" = 1'-0"
140
0.015625
141
12.0
290
     0
  0
SCALE
  5
5B
102
{ACAD_REACTORS
330
47
102
}
330
47
100
AcDbScale
 70
     0
300
1/32" = 1'-0"
140
0.03125
141
12.0
290
     0
  0
SCALE
  5
5C
102
{ACAD_REACTORS
330
47
102
}
330
47
100
AcDbScale
 70
     0
300
1/16" = 1'-0"
140
0.0625
141
12.0
290
     0
  0
SCALE
  5
5D
102
{ACAD_REACTORS
330
47
102
}
330
47
100
AcDbScale
 70
     0
300
3/32" = 1'-0"
140
0.09375
141
12.0
290
     0
  0
SCALE
  5
5E
102
{ACAD_REACTORS
330
47
102
}
330
47
100
AcDbScale
 70
     0
300
1/8" = 1'-0"
140
0.125
141
12.0
290
     0
  0
SCALE
  5
5F
102
{ACAD_REACTORS
330
47
102
}
330
47
100
AcDbScale
 70
     0
300
3/16" = 1'-0"
140
0.1875
141
12.0
290
     0
  0
SCALE
  5
60
102
{ACAD_REACTORS
330
47
102
}
330
47
100
AcDbScale
 70
     0
300
1/4" = 1'-0"
140
0.25
141
12.0
290
     0
  0
SCALE
  5
61
102
{ACAD_REACTORS
330
47
102
}
330
47
100
AcDbScale
 70
     0
300
3/8" = 1'-0"
140
0.375
141
12.0
290
     0
  0
SCALE
  5
62
102
{ACAD_REACTORS
330
47
102
}
330
47
100
AcDbScale
 70
     0
300
1/2" = 1'-0"
140
0.5
141
12.0
290
     0
  0
SCALE
  5
63
102
{ACAD_REACTORS
330
47
102
}
330
47
100
AcDbScale
 70
     0
300
3/4" = 1'-0"
140
0.75
141
12.0
290
     0
  0
SCALE
  5
64
102
{ACAD_REACTORS
330
47
102
}
330
47
100
AcDbScale
 70
     0
300
1" = 1'-0"
140
1.0
141
12.0
290
     0
  0
SCALE
  5
65
102
{ACAD_REACTORS
330
47
102
}
330
47
100
AcDbScale
 70
     0
300
1-1/2" = 1'-0"
140
1.5
141
12.0
290
     0
  0
SCALE
  5
66
102
{ACAD_REACTORS
330
47
102
}
330
47
100
AcDbScale
 70
     0
300
3" = 1'-0"
140
3.0
141
12.0
290
     0
  0
SCALE
  5
67
102
{ACAD_REACTORS
330
47
102
}
330
47
100
AcDbScale
 70
     0
300
6" = 1'-0"
140
6.0
141
12.0
290
     0
  0
SCALE
  5
68
102
{ACAD_REACTORS
330
47
102
}
330
47
100
AcDbScale
 70
     0
300
1'-0" = 1'-0"
140
12.0
141
12.0
290
     0
  0
ACDBSECTIONVIEWSTYLE
  5
9CD
102
{ACAD_XDICTIONARY
360
BB9
102
}
102
{ACAD_REACTORS
330
9CC
102
}
330
9CC
100
AcDbModelDocViewStyle
 70
     0
  3
Metric50
290
     0
100
AcDbSectionViewStyle
 70
     0
 71
     0
 90
      102
 71
     1
340
11
 62
   256
 40
5.0
340
0
340
0
 62
   256
 40
5.0
300
I, O, Q, S, X, Z
 40
10.0
 90
        0
 40
2.5
 90
        0
 71
     2
340
16
 90
       25
 62
   256
340
16
 90
       50
 62
   256
 40
5.0
 40
2.5
 40
5.0
 71
     3
340
11
 62
   256
 40
5.0
 90
        0
 40
15.0
 90
        1
300
%<\AcVar ViewSectionStartId>%-%<\AcVar ViewSectionEndId>% (%<\AcVar ViewScale \f "%sn">%)
 71
     4
 62
   256
 62
   257
300
ANSI31
 40
1.0
 90
        0
290
     0
290
     0
 90
        6
 40
0.0
 40
1.570796326794896
 40
0.2617993877991494
 40
1.308996938995747
 40
-0.2617993877991494
 40
1.832595714594046
  0
TABLESTYLE
  5
9C9
102
{ACAD_XDICTIONARY
360
BC3
102
}
102
{ACAD_REACTORS
330
9C8
102
}
330
9C8
100
AcDbTableStyle
280
     0
  3
Standard
 70
     0
 71
     0
 40
1.5
 41
1.5
280
     0
281
     0
  7
Standard
140
4.5
170
     2
 62
     0
 63
     7
283
     0
 90
      512
 91
        0
  1

274
    -2
284
     1
 64
     0
275
    -2
285
     1
 65
     0
276
    -2
286
     1
 66
     0
277
    -2
287
     1
 67
     0
278
    -2
288
     1
 68
     0
279
    -2
289
     1
 69
     0
  7
Standard
140
6.0
170
     5
 62
     0
 63
     7
283
     0
 90
      512
 91
        0
  1

274
    -2
284
     1
 64
     0
275
    -2
285
     1
 65
     0
276
    -2
286
     1
 66
     0
277
    -2
287
     1
 67
     0
278
    -2
288
     1
 68
     0
279
    -2
289
     1
 69
     0
  7
Standard
140
4.5
170
     5
 62
     0
 63
     7
283
     0
 90
      512
 91
        0
  1

274
    -2
284
     1
 64
     0
275
    -2
285
     1
 65
     0
276
    -2
286
     1
 66
     0
277
    -2
287
     1
 67
     0
278
    -2
288
     1
 68
     0
279
    -2
289
     1
 69
     0
  0
VISUALSTYLE
  5
9B4
102
{ACAD_REACTORS
330
9AE
102
}
330
9AE
100
AcDbVisualStyle
  2
2dWireframe
 70
     4
177
     3
291
     0
 70
    58
 90
        0
176
     1
 90
        2
176
     1
 90
        0
176
     1
 90
        0
176
     1
 40
0.6
176
     1
 40
30.0
176
     1
 62
     7
420
 16777215
176
     1
 90
        1
176
     1
 90
        4
176
     1
 62
     7
176
     1
 62
   257
176
     1
 90
        1
176
     1
 90
        1
176
     1
 40
1.0
176
     1
 90
        0
176
     1
 62
   257
176
     1
 40
1.0
176
     1
 90
        1
176
     1
 90
        6
176
     1
 90
        2
176
     1
 62
     7
176
     1
 90
        5
176
     1
 90
        0
176
     1
 90
        0
176
     1
290
     0
176
     1
 90
        1
176
     1
 40
0.0
176
     1
 90
        0
176
     1
290
     1
176
     1
290
     1
176
     1
290
     0
176
     1
290
     0
176
     1
290
     0
176
     1
290
     0
176
     1
290
     0
176
     1
290
     0
176
     1
290
     0
176
     1
 90
       50
176
     1
 40
0.0
176
     1
 40
1.0
176
     1
 90
        0
176
     1
 62
    18
420
        0
176
     1
 90
       50
176
     1
 90
        3
176
     1
 62
     5
420
      255
176
     1
290
     0
176
     1
 90
       50
176
     1
 90
       50
176
     1
 90
       50
176
     1
290
     0
176
     1
 90
       50
176
     1
 62
   256
176
     0
 40
1.0
176
     0
 90
        2
176
     1
  1
strokes_ogs.tif
176
     1
290
     0
176
     1
 40
1.0
176
     1
 40
1.0
176
     1
  0
VISUALSTYLE
  5
9B3
102
{ACAD_REACTORS
330
9AE
102
}
330
9AE
100
AcDbVisualStyle
  2
Basic
 70
     7
177
     3
291
     1
 70
    58
 90
        1
176
     1
 90
        0
176
     1
 90
        1
176
     1
 90
        0
176
     1
 40
0.6
176
     1
 40
30.0
176
     1
 62
     7
420
 16777215
176
     1
 90
        0
176
     1
 90
        4
176
     1
 62
     7
176
     1
 62
   257
176
     1
 90
        1
176
     1
 90
        1
176
     1
 40
1.0
176
     1
 90
        8
176
     1
 62
     7
176
     1
 40
1.0
176
     1
 90
        1
176
     1
 90
        6
176
     1
 90
        2
176
     1
 62
     7
176
     1
 90
        5
176
     1
 90
        0
176
     1
 90
        0
176
     1
290
     0
176
     1
 90
        1
176
     1
 40
0.0
176
     1
 90
        0
176
     1
290
     0
176
     1
290
     1
176
     1
290
     1
176
     1
290
     0
176
     1
290
     0
176
     1
290
     0
176
     1
290
     0
176
     1
290
     0
176
     1
290
     0
176
     1
 90
       50
176
     1
 40
0.0
176
     1
 40
1.0
176
     1
 90
        0
176
     1
 62
    18
420
        0
176
     1
 90
       50
176
     1
 90
        3
176
     1
 62
     5
420
      255
176
     1
290
     0
176
     1
 90
       50
176
     1
 90
       50
176
     1
 90
       50
176
     1
290
     0
176
     1
 90
       50
176
     1
 62
   256
176
     0
 40
1.0
176
     0
 90
        2
176
     1
  1
strokes_ogs.tif
176
     1
290
     0
176
     1
 40
1.0
176
     1
 40
1.0
176
     1
  0
VISUALSTYLE
  5
9BA
102
{ACAD_REACTORS
330
9AE
102
}
330
9AE
100
AcDbVisualStyle
  2
Brighten
 70
    12
177
     3
291
     1
 70
    58
 90
        2
176
     1
 90
        2
176
     1
 90
        0
176
     1
 90
        0
176
     1
 40
0.6
176
     1
 40
30.0
176
     1
 62
     7
420
 16777215
176
     1
 90
        1
176
     1
 90
        4
176
     1
 62
     7
176
     1
 62
   257
176
     1
 90
        1
176
     1
 90
        1
176
     1
 40
1.0
176
     1
 90
        8
176
     1
 62
     7
176
     1
 40
1.0
176
     1
 90
        1
176
     1
 90
        6
176
     1
 90
        2
176
     1
 62
     7
176
     1
 90
        5
176
     1
 90
        0
176
     1
 90
        0
176
     1
290
     0
176
     1
 90
        1
176
     1
 40
50.0
176
     1
 90
        0
176
     1
290
     0
176
     1
290
     1
176
     1
290
     1
176
     1
290
     0
176
     1
290
     0
176
     1
290
     0
176
     1
290
     0
176
     1
290
     0
176
     1
290
     0
176
     1
 90
       50
176
     1
 40
0.0
176
     1
 40
1.0
176
     1
 90
        0
176
     1
 62
    18
420
        0
176
     1
 90
       50
176
     1
 90
        3
176
     1
 62
     5
420
      255
176
     1
290
     0
176
     1
 90
       50
176
     1
 90
       50
176
     1
 90
       50
176
     1
290
     0
176
     1
 90
       50
176
     1
 62
   256
176
     0
 40
1.0
176
     0
 90
        2
176
     1
  1
strokes_ogs.tif
176
     1
290
     0
176
     1
 40
1.0
176
     1
 40
1.0
176
     1
  0
VISUALSTYLE
  5
9BE
102
{ACAD_REACTORS
330
9AE
102
}
330
9AE
100
AcDbVisualStyle
  2
ColorChange
 70
    16
177
     3
291
     1
 70
    58
 90
        2
176
     1
 90
        2
176
     1
 90
        3
176
     1
 90
        0
176
     1
 40
0.6
176
     1
 40
30.0
176
     1
 62
     8
420
  8421504
176
     1
 90
        1
176
     1
 90
        4
176
     1
 62
     7
176
     1
 62
   257
176
     1
 90
        1
176
     1
 90
        1
176
     1
 40
1.0
176
     1
 90
        8
176
     1
 62
     8
420
  8421504
176
     1
 40
1.0
176
     1
 90
        1
176
     1
 90
        6
176
     1
 90
        2
176
     1
 62
     7
176
     1
 90
        5
176
     1
 90
        0
176
     1
 90
        0
176
     1
290
     0
176
     1
 90
        1
176
     1
 40
0.0
176
     1
 90
        0
176
     1
290
     0
176
     1
290
     1
176
     1
290
     1
176
     1
290
     0
176
     1
290
     0
176
     1
290
     0
176
     1
290
     0
176
     1
290
     0
176
     1
290
     0
176
     1
 90
       50
176
     1
 40
0.0
176
     1
 40
1.0
176
     1
 90
        0
176
     1
 62
    18
420
        0
176
     1
 90
       50
176
     1
 90
        3
176
     1
 62
     5
420
      255
176
     1
290
     0
176
     1
 90
       50
176
     1
 90
       50
176
     1
 90
       50
176
     1
290
     0
176
     1
 90
       50
176
     1
 62
   256
176
     0
 40
1.0
176
     0
 90
        2
176
     1
  1
strokes_ogs.tif
176
     1
290
     0
176
     1
 40
1.0
176
     1
 40
1.0
176
     1
  0
VISUALSTYLE
  5
9B7
102
{ACAD_REACTORS
330
9AE
102
}
330
9AE
100
AcDbVisualStyle
  2
Conceptual
 70
     9
177
     3
291
     0
 70
    58
 90
        3
176
     1
 90
        2
176
     1
 90
        0
176
     1
 90
        0
176
     1
 40
0.6
176
     1
 40
30.0
176
     1
 62
     7
420
 16777215
176
     1
 90
        2
176
     1
 90
        2
176
     1
 62
     7
176
     1
 62
   257
176
     1
 90
        1
176
     1
 90
        1
176
     1
 40
179.0
176
     1
 90
        8
176
     1
 62
     7
176
     1
 40
1.0
176
     1
 90
        1
176
     1
 90
        6
176
     1
 90
        2
176
     1
 62
     7
176
     1
 90
        3
176
     1
 90
        0
176
     1
 90
        0
176
     1
290
     0
176
     1
 90
        1
176
     1
 40
0.0
176
     1
 90
        0
176
     1
290
     0
176
     1
290
     1
176
     1
290
     1
176
     1
290
     0
176
     1
290
     0
176
     1
290
     0
176
     1
290
     0
176
     1
290
     0
176
     1
290
     0
176
     1
 90
       50
176
     1
 40
0.0
176
     1
 40
1.0
176
     1
 90
        0
176
     1
 62
    18
420
        0
176
     1
 90
       50
176
     1
 90
        3
176
     1
 62
     5
420
      255
176
     1
290
     0
176
     1
 90
       50
176
     1
 90
       50
176
     1
 90
       50
176
     1
290
     0
176
     1
 90
       50
176
     1
 62
   256
176
     0
 40
1.0
176
     0
 90
        2
176
     1
  1
strokes_ogs.tif
176
     1
290
     0
176
     1
 40
1.0
176
     1
 40
1.0
176
     1
  0
VISUALSTYLE
  5
9B9
102
{ACAD_REACTORS
330
9AE
102
}
330
9AE
100
AcDbVisualStyle
  2
Dim
 70
    11
177
     3
291
     1
 70
    58
 90
        2
176
     1
 90
        2
176
     1
 90
        0
176
     1
 90
        0
176
     1
 40
0.6
176
     1
 40
30.0
176
     1
 62
     7
420
 16777215
176
     1
 90
        1
176
     1
 90
        4
176
     1
 62
     7
176
     1
 62
   257
176
     1
 90
        1
176
     1
 90
        1
176
     1
 40
1.0
176
     1
 90
        8
176
     1
 62
     7
176
     1
 40
1.0
176
     1
 90
        1
176
     1
 90
        6
176
     1
 90
        2
176
     1
 62
     7
176
     1
 90
        5
176
     1
 90
        0
176
     1
 90
        0
176
     1
290
     0
176
     1
 90
        1
176
     1
 40
-50.0
176
     1
 90
        0
176
     1
290
     0
176
     1
290
     1
176
     1
290
     1
176
     1
290
     0
176
     1
290
     0
176
     1
290
     0
176
     1
290
     0
176
     1
290
     0
176
     1
290
     0
176
     1
 90
       50
176
     1
 40
0.0
176
     1
 40
1.0
176
     1
 90
        0
176
     1
 62
    18
420
        0
176
     1
 90
       50
176
     1
 90
        3
176
     1
 62
     5
420
      255
176
     1
290
     0
176
     1
 90
       50
176
     1
 90
       50
176
     1
 90
       50
176
     1
290
     0
176
     1
 90
       50
176
     1
 62
   256
176
     0
 40
1.0
176
     0
 90
        2
176
     1
  1
strokes_ogs.tif
176
     1
290
     0
176
     1
 40
1.0
176
     1
 40
1.0
176
     1
  0
VISUALSTYLE
  5
9C6
102
{ACAD_REACTORS
330
9AE
102
}
330
9AE
100
AcDbVisualStyle
  2
EdgeColorOff
 70
    22
177
     3
291
     1
 70
    58
 90
        2
176
     0
 90
        2
176
     0
 90
        0
176
     0
 90
        0
176
     0
 40
0.6
176
     0
 40
30.0
176
     0
 62
     7
420
 16777215
176
     0
 90
        1
176
     0
 90
        4
176
     0
 62
     7
176
     0
 62
   257
176
     0
 90
        1
176
     0
 90
        1
176
     0
 40
1.0
176
     0
 90
        8
176
     2
 62
     7
176
     0
 40
1.0
176
     0
 90
        1
176
     0
 90
        6
176
     0
 90
        2
176
     0
 62
     7
176
     0
 90
        5
176
     0
 90
        0
176
     0
 90
        0
176
     0
290
     0
176
     0
 90
        1
176
     0
 40
0.0
176
     0
 90
        0
176
     0
290
     0
176
     0
290
     1
176
     0
290
     1
176
     0
290
     0
176
     0
290
     0
176
     0
290
     0
176
     0
290
     0
176
     0
290
     0
176
     0
290
     0
176
     0
 90
       50
176
     0
 40
0.0
176
     0
 40
1.0
176
     0
 90
        0
176
     0
 62
    18
420
        0
176
     0
 90
       50
176
     0
 90
        3
176
     0
 62
     5
420
      255
176
     0
290
     0
176
     0
 90
       50
176
     0
 90
       50
176
     0
 90
       50
176
     0
290
     0
176
     0
 90
       50
176
     0
 62
   256
176
     0
 40
1.0
176
     0
 90
        2
176
     0
  1
strokes_ogs.tif
176
     0
290
     0
176
     0
 40
1.0
176
     0
 40
1.0
176
     0
  0
VISUALSTYLE
  5
9BD
102
{ACAD_REACTORS
330
9AE
102
}
330
9AE
100
AcDbVisualStyle
  2
Facepattern
 70
    15
177
     3
291
     1
 70
    58
 90
        2
176
     1
 90
        2
176
     1
 90
        0
176
     1
 90
        0
176
     1
 40
0.6
176
     1
 40
30.0
176
     1
 62
     7
420
 16777215
176
     1
 90
        1
176
     1
 90
        4
176
     1
 62
     7
176
     1
 62
   257
176
     1
 90
        1
176
     1
 90
        1
176
     1
 40
1.0
176
     1
 90
        8
176
     1
 62
     7
176
     1
 40
1.0
176
     1
 90
        1
176
     1
 90
        6
176
     1
 90
        2
176
     1
 62
     7
176
     1
 90
        5
176
     1
 90
        0
176
     1
 90
        0
176
     1
290
     0
176
     1
 90
        1
176
     1
 40
0.0
176
     1
 90
        0
176
     1
290
     0
176
     1
290
     1
176
     1
290
     1
176
     1
290
     0
176
     1
290
     0
176
     1
290
     0
176
     1
290
     0
176
     1
290
     0
176
     1
290
     0
176
     1
 90
       50
176
     1
 40
0.0
176
     1
 40
1.0
176
     1
 90
        0
176
     1
 62
    18
420
        0
176
     1
 90
       50
176
     1
 90
        3
176
     1
 62
     5
420
      255
176
     1
290
     0
176
     1
 90
       50
176
     1
 90
       50
176
     1
 90
       50
176
     1
290
     0
176
     1
 90
       50
176
     1
 62
   256
176
     0
 40
1.0
176
     0
 90
        2
176
     1
  1
strokes_ogs.tif
176
     1
290
     0
176
     1
 40
1.0
176
     1
 40
1.0
176
     1
  0
VISUALSTYLE
  5
9AF
102
{ACAD_REACTORS
330
9AE
102
}
330
9AE
100
AcDbVisualStyle
  2
Flat
 70
     0
177
     3
291
     1
 70
    58
 90
        2
176
     1
 90
        1
176
     1
 90
        1
176
     1
 90
        2
176
     1
 40
0.6
176
     1
 40
30.0
176
     1
 62
     7
420
 16777215
176
     1
 90
        0
176
     1
 90
        0
176
     1
 62
     7
176
     1
 62
   257
176
     1
 90
        1
176
     1
 90
        1
176
     1
 40
1.0
176
     1
 90
        8
176
     1
 62
     7
176
     1
 40
1.0
176
     1
 90
        1
176
     1
 90
        6
176
     1
 90
        2
176
     1
 62
     7
176
     1
 90
        5
176
     1
 90
        0
176
     1
 90
        0
176
     1
290
     0
176
     1
 90
       13
176
     1
 40
0.0
176
     1
 90
        0
176
     1
290
     0
176
     1
290
     1
176
     1
290
     1
176
     1
290
     0
176
     1
290
     0
176
     1
290
     0
176
     1
290
     0
176
     1
290
     0
176
     1
290
     0
176
     1
 90
       50
176
     1
 40
0.0
176
     1
 40
1.0
176
     1
 90
        0
176
     1
 62
    18
420
        0
176
     1
 90
       50
176
     1
 90
        3
176
     1
 62
     5
420
      255
176
     1
290
     0
176
     1
 90
       50
176
     1
 90
       50
176
     1
 90
       50
176
     1
290
     0
176
     1
 90
       50
176
     1
 62
   256
176
     0
 40
1.0
176
     0
 90
        2
176
     1
  1
strokes_ogs.tif
176
     1
290
     0
176
     1
 40
1.0
176
     1
 40
1.0
176
     1
  0
VISUALSTYLE
  5
9B0
102
{ACAD_REACTORS
330
9AE
102
}
330
9AE
100
AcDbVisualStyle
  2
FlatWithEdges
 70
     1
177
     3
291
     1
 70
    58
 90
        2
176
     1
 90
        1
176
     1
 90
        1
176
     1
 90
        2
176
     1
 40
0.6
176
     1
 40
30.0
176
     1
 62
     7
420
 16777215
176
     1
 90
        1
176
     1
 90
        0
176
     1
 62
     7
176
     1
 62
   257
176
     1
 90
        1
176
     1
 90
        1
176
     1
 40
1.0
176
     1
 90
        0
176
     1
 62
   257
176
     1
 40
1.0
176
     1
 90
        1
176
     1
 90
        6
176
     1
 90
        2
176
     1
 62
     7
176
     1
 90
        5
176
     1
 90
        0
176
     1
 90
        0
176
     1
290
     0
176
     1
 90
       13
176
     1
 40
0.0
176
     1
 90
        0
176
     1
290
     0
176
     1
290
     1
176
     1
290
     1
176
     1
290
     0
176
     1
290
     0
176
     1
290
     0
176
     1
290
     0
176
     1
290
     0
176
     1
290
     0
176
     1
 90
       50
176
     1
 40
0.0
176
     1
 40
1.0
176
     1
 90
        0
176
     1
 62
    18
420
        0
176
     1
 90
       50
176
     1
 90
        3
176
     1
 62
     5
420
      255
176
     1
290
     0
176
     1
 90
       50
176
     1
 90
       50
176
     1
 90
       50
176
     1
290
     0
176
     1
 90
       50
176
     1
 62
   256
176
     0
 40
1.0
176
     0
 90
        2
176
     1
  1
strokes_ogs.tif
176
     1
290
     0
176
     1
 40
1.0
176
     1
 40
1.0
176
     1
  0
VISUALSTYLE
  5
9B1
102
{ACAD_REACTORS
330
9AE
102
}
330
9AE
100
AcDbVisualStyle
  2
Gouraud
 70
     2
177
     3
291
     1
 70
    58
 90
        2
176
     1
 90
        2
176
     1
 90
        1
176
     1
 90
        2
176
     1
 40
0.6
176
     1
 40
30.0
176
     1
 62
     7
420
 16777215
176
     1
 90
        0
176
     1
 90
        0
176
     1
 62
     7
176
     1
 62
   257
176
     1
 90
        1
176
     1
 90
        1
176
     1
 40
1.0
176
     1
 90
        0
176
     1
 62
     7
176
     1
 40
1.0
176
     1
 90
        1
176
     1
 90
        6
176
     1
 90
        2
176
     1
 62
     7
176
     1
 90
        5
176
     1
 90
        0
176
     1
 90
        0
176
     1
290
     0
176
     1
 90
       13
176
     1
 40
0.0
176
     1
 90
        0
176
     1
290
     0
176
     1
290
     1
176
     1
290
     1
176
     1
290
     0
176
     1
290
     0
176
     1
290
     0
176
     1
290
     0
176
     1
290
     0
176
     1
290
     0
176
     1
 90
       50
176
     1
 40
0.0
176
     1
 40
1.0
176
     1
 90
        0
176
     1
 62
    18
420
        0
176
     1
 90
       50
176
     1
 90
        3
176
     1
 62
     5
420
      255
176
     1
290
     0
176
     1
 90
       50
176
     1
 90
       50
176
     1
 90
       50
176
     1
290
     0
176
     1
 90
       50
176
     1
 62
   256
176
     0
 40
1.0
176
     0
 90
        2
176
     1
  1
strokes_ogs.tif
176
     1
290
     0
176
     1
 40
1.0
176
     1
 40
1.0
176
     1
  0
VISUALSTYLE
  5
9B2
102
{ACAD_REACTORS
330
9AE
102
}
330
9AE
100
AcDbVisualStyle
  2
GouraudWithEdges
 70
     3
177
     3
291
     1
 70
    58
 90
        2
176
     1
 90
        2
176
     1
 90
        1
176
     1
 90
        2
176
     1
 40
0.6
176
     1
 40
30.0
176
     1
 62
     7
420
 16777215
176
     1
 90
        1
176
     1
 90
        0
176
     1
 62
     7
176
     1
 62
   257
176
     1
 90
        1
176
     1
 90
        1
176
     1
 40
1.0
176
     1
 90
        0
176
     1
 62
   257
176
     1
 40
1.0
176
     1
 90
        1
176
     1
 90
        6
176
     1
 90
        2
176
     1
 62
     7
176
     1
 90
        5
176
     1
 90
        0
176
     1
 90
        0
176
     1
290
     0
176
     1
 90
       13
176
     1
 40
0.0
176
     1
 90
        0
176
     1
290
     0
176
     1
290
     1
176
     1
290
     1
176
     1
290
     0
176
     1
290
     0
176
     1
290
     0
176
     1
290
     0
176
     1
290
     0
176
     1
290
     0
176
     1
 90
       50
176
     1
 40
0.0
176
     1
 40
1.0
176
     1
 90
        0
176
     1
 62
    18
420
        0
176
     1
 90
       50
176
     1
 90
        3
176
     1
 62
     5
420
      255
176
     1
290
     0
176
     1
 90
       50
176
     1
 90
       50
176
     1
 90
       50
176
     1
290
     0
176
     1
 90
       50
176
     1
 62
   256
176
     0
 40
1.0
176
     0
 90
        2
176
     1
  1
strokes_ogs.tif
176
     1
290
     0
176
     1
 40
1.0
176
     1
 40
1.0
176
     1
  0
VISUALSTYLE
  5
9B6
102
{ACAD_REACTORS
330
9AE
102
}
330
9AE
100
AcDbVisualStyle
  2
Hidden
 70
     6
177
     3
291
     0
 70
    58
 90
        1
176
     1
 90
        2
176
     1
 90
        2
176
     1
 90
        0
176
     1
 40
0.6
176
     1
 40
30.0
176
     1
 62
     7
420
 16777215
176
     1
 90
        2
176
     1
 90
        2
176
     1
 62
     7
176
     1
 62
   257
176
     1
 90
        2
176
     1
 90
        1
176
     1
 40
40.0
176
     1
 90
        0
176
     1
 62
   257
176
     1
 40
1.0
176
     1
 90
        1
176
     1
 90
        6
176
     1
 90
        2
176
     1
 62
     7
176
     1
 90
        3
176
     1
 90
        0
176
     1
 90
        0
176
     1
290
     0
176
     1
 90
        1
176
     1
 40
0.0
176
     1
 90
        0
176
     1
290
     0
176
     1
290
     1
176
     1
290
     1
176
     1
290
     0
176
     1
290
     0
176
     1
290
     0
176
     1
290
     0
176
     1
290
     0
176
     1
290
     0
176
     1
 90
       50
176
     1
 40
0.0
176
     1
 40
1.0
176
     1
 90
        0
176
     1
 62
    18
420
        0
176
     1
 90
       50
176
     1
 90
        3
176
     1
 62
     5
420
      255
176
     1
290
     0
176
     1
 90
       50
176
     1
 90
       50
176
     1
 90
       50
176
     1
290
     0
176
     1
 90
       50
176
     1
 62
   256
176
     0
 40
1.0
176
     0
 90
        2
176
     1
  1
strokes_ogs.tif
176
     1
290
     0
176
     1
 40
1.0
176
     1
 40
1.0
176
     1
  0
VISUALSTYLE
  5
9C4
102
{ACAD_REACTORS
330
9AE
102
}
330
9AE
100
AcDbVisualStyle
  2
JitterOff
 70
    20
177
     3
291
     1
 70
    58
 90
        2
176
     0
 90
        2
176
     0
 90
        0
176
     0
 90
        0
176
     0
 40
0.6
176
     0
 40
30.0
176
     0
 62
     7
420
 16777215
176
     0
 90
        1
176
     0
 90
        4
176
     0
 62
     7
176
     0
 62
   257
176
     0
 90
        1
176
     0
 90
        1
176
     0
 40
1.0
176
     0
 90
       10
176
     2
 62
     7
176
     0
 40
1.0
176
     0
 90
        1
176
     0
 90
        6
176
     0
 90
        2
176
     0
 62
     7
176
     0
 90
        5
176
     0
 90
        0
176
     0
 90
        0
176
     0
290
     0
176
     0
 90
        1
176
     0
 40
0.0
176
     0
 90
        0
176
     0
290
     0
176
     0
290
     1
176
     0
290
     1
176
     0
290
     0
176
     0
290
     0
176
     0
290
     0
176
     0
290
     0
176
     0
290
     0
176
     0
290
     0
176
     0
 90
       50
176
     0
 40
0.0
176
     0
 40
1.0
176
     0
 90
        0
176
     0
 62
    18
420
        0
176
     0
 90
       50
176
     0
 90
        3
176
     0
 62
     5
420
      255
176
     0
290
     0
176
     0
 90
       50
176
     0
 90
       50
176
     0
 90
       50
176
     0
290
     0
176
     0
 90
       50
176
     0
 62
   256
176
     0
 40
1.0
176
     0
 90
        2
176
     0
  1
strokes_ogs.tif
176
     0
290
     0
176
     0
 40
1.0
176
     0
 40
1.0
176
     0
  0
VISUALSTYLE
  5
9BC
102
{ACAD_REACTORS
330
9AE
102
}
330
9AE
100
AcDbVisualStyle
  2
Linepattern
 70
    14
177
     3
291
     1
 70
    58
 90
        2
176
     1
 90
        2
176
     1
 90
        0
176
     1
 90
        0
176
     1
 40
0.6
176
     1
 40
30.0
176
     1
 62
     7
420
 16777215
176
     1
 90
        1
176
     1
 90
        4
176
     1
 62
     7
176
     1
 62
   257
176
     1
 90
        7
176
     1
 90
        7
176
     1
 40
1.0
176
     1
 90
        8
176
     1
 62
     7
176
     1
 40
1.0
176
     1
 90
        1
176
     1
 90
        6
176
     1
 90
        2
176
     1
 62
     7
176
     1
 90
        5
176
     1
 90
        0
176
     1
 90
        0
176
     1
290
     0
176
     1
 90
        1
176
     1
 40
0.0
176
     1
 90
        0
176
     1
290
     0
176
     1
290
     1
176
     1
290
     1
176
     1
290
     0
176
     1
290
     0
176
     1
290
     0
176
     1
290
     0
176
     1
290
     0
176
     1
290
     0
176
     1
 90
       50
176
     1
 40
0.0
176
     1
 40
1.0
176
     1
 90
        0
176
     1
 62
    18
420
        0
176
     1
 90
       50
176
     1
 90
        3
176
     1
 62
     5
420
      255
176
     1
290
     0
176
     1
 90
       50
176
     1
 90
       50
176
     1
 90
       50
176
     1
290
     0
176
     1
 90
       50
176
     1
 62
   256
176
     0
 40
1.0
176
     0
 90
        2
176
     1
  1
strokes_ogs.tif
176
     1
290
     0
176
     1
 40
1.0
176
     1
 40
1.0
176
     1
  0
VISUALSTYLE
  5
9C5
102
{ACAD_REACTORS
330
9AE
102
}
330
9AE
100
AcDbVisualStyle
  2
OverhangOff
 70
    21
177
     3
291
     1
 70
    58
 90
        2
176
     0
 90
        2
176
     0
 90
        0
176
     0
 90
        0
176
     0
 40
0.6
176
     0
 40
30.0
176
     0
 62
     7
420
 16777215
176
     0
 90
        1
176
     0
 90
        4
176
     0
 62
     7
176
     0
 62
   257
176
     0
 90
        1
176
     0
 90
        1
176
     0
 40
1.0
176
     0
 90
        9
176
     2
 62
     7
176
     0
 40
1.0
176
     0
 90
        1
176
     0
 90
        6
176
     0
 90
        2
176
     0
 62
     7
176
     0
 90
        5
176
     0
 90
        0
176
     0
 90
        0
176
     0
290
     0
176
     0
 90
        1
176
     0
 40
0.0
176
     0
 90
        0
176
     0
290
     0
176
     0
290
     1
176
     0
290
     1
176
     0
290
     0
176
     0
290
     0
176
     0
290
     0
176
     0
290
     0
176
     0
290
     0
176
     0
290
     0
176
     0
 90
       50
176
     0
 40
0.0
176
     0
 40
1.0
176
     0
 90
        0
176
     0
 62
    18
420
        0
176
     0
 90
       50
176
     0
 90
        3
176
     0
 62
     5
420
      255
176
     0
290
     0
176
     0
 90
       50
176
     0
 90
       50
176
     0
 90
       50
176
     0
290
     0
176
     0
 90
       50
176
     0
 62
   256
176
     0
 40
1.0
176
     0
 90
        2
176
     0
  1
strokes_ogs.tif
176
     0
290
     0
176
     0
 40
1.0
176
     0
 40
1.0
176
     0
  0
VISUALSTYLE
  5
9B8
102
{ACAD_REACTORS
330
9AE
102
}
330
9AE
100
AcDbVisualStyle
  2
Realistic
 70
     8
177
     3
291
     0
 70
    58
 90
        2
176
     1
 90
        3
176
     1
 90
        0
176
     1
 90
        2
176
     1
 40
0.6
176
     1
 40
30.0
176
     1
 62
     7
420
 16777215
176
     1
 90
        0
176
     1
 90
        0
176
     1
 62
     7
176
     1
 62
   257
176
     1
 90
        1
176
     1
 90
        1
176
     1
 40
1.0
176
     1
 90
        8
176
     1
 62
   257
176
     1
 40
1.0
176
     1
 90
        1
176
     1
 90
        6
176
     1
 90
        2
176
     1
 62
     7
176
     1
 90
        3
176
     1
 90
        0
176
     1
 90
        0
176
     1
290
     0
176
     1
 90
       13
176
     1
 40
0.0
176
     1
 90
        0
176
     1
290
     0
176
     1
290
     1
176
     1
290
     1
176
     1
290
     0
176
     1
290
     0
176
     1
290
     0
176
     1
290
     0
176
     1
290
     0
176
     1
290
     0
176
     1
 90
       50
176
     1
 40
0.0
176
     1
 40
1.0
176
     1
 90
        0
176
     1
 62
    18
420
        0
176
     1
 90
       50
176
     1
 90
        3
176
     1
 62
     5
420
      255
176
     1
290
     0
176
     1
 90
       50
176
     1
 90
       50
176
     1
 90
       50
176
     1
290
     0
176
     1
 90
       50
176
     1
 62
   256
176
     0
 40
1.0
176
     0
 90
        2
176
     1
  1
strokes_ogs.tif
176
     1
290
     0
176
     1
 40
1.0
176
     1
 40
1.0
176
     1
  0
VISUALSTYLE
  5
9C3
102
{ACAD_REACTORS
330
9AE
102
}
330
9AE
100
AcDbVisualStyle
  2
Shaded
 70
    27
177
     3
291
     0
 70
    58
 90
        2
176
     1
 90
        2
176
     1
 90
        1
176
     1
 90
        2
176
     1
 40
0.6
176
     1
 40
30.0
176
     1
 62
     7
420
 16777215
176
     1
 90
        0
176
     1
 90
        4
176
     1
 62
     7
176
     1
 62
   257
176
     1
 90
        1
176
     1
 90
        1
176
     1
 40
1.0
176
     1
 90
        8
176
     1
 62
   257
176
     1
 40
1.0
176
     1
 90
        1
176
     1
 90
        6
176
     1
 90
        2
176
     1
 62
     8
420
  7895160
176
     1
 90
        3
176
     1
 90
        0
176
     1
 90
        0
176
     1
290
     0
176
     1
 90
        5
176
     1
 40
0.0
176
     1
 90
        0
176
     1
290
     0
176
     1
290
     1
176
     1
290
     1
176
     1
290
     0
176
     1
290
     0
176
     1
290
     0
176
     1
290
     0
176
     1
290
     0
176
     1
290
     0
176
     1
 90
       50
176
     1
 40
0.0
176
     1
 40
1.0
176
     1
 90
        0
176
     1
 62
    18
420
        0
176
     1
 90
       50
176
     1
 90
        3
176
     1
 62
     5
420
      255
176
     1
290
     0
176
     1
 90
       50
176
     1
 90
       50
176
     1
 90
       50
176
     1
290
     0
176
     1
 90
       50
176
     1
 62
   256
176
     0
 40
1.0
176
     0
 90
        2
176
     1
  1
strokes_ogs.tif
176
     1
290
     0
176
     1
 40
1.0
176
     1
 40
1.0
176
     1
  0
VISUALSTYLE
  5
9C2
102
{ACAD_REACTORS
330
9AE
102
}
330
9AE
100
AcDbVisualStyle
  2
Shaded with edges
 70
    26
177
     3
291
     0
 70
    58
 90
        2
176
     1
 90
        2
176
     1
 90
        1
176
     1
 90
        2
176
     1
 40
0.6
176
     1
 40
30.0
176
     1
 62
     7
420
 16777215
176
     1
 90
        1
176
     1
 90
        2
176
     1
 62
     7
176
     1
 62
   257
176
     1
 90
        2
176
     1
 90
        1
176
     1
 40
1.0
176
     1
 90
        8
176
     1
 62
   257
176
     1
 40
1.0
176
     1
 90
        1
176
     1
 90
        6
176
     1
 90
        2
176
     1
 62
     7
176
     1
 90
        3
176
     1
 90
        0
176
     1
 90
        0
176
     1
290
     0
176
     1
 90
        5
176
     1
 40
0.0
176
     1
 90
        0
176
     1
290
     0
176
     1
290
     1
176
     1
290
     1
176
     1
290
     0
176
     1
290
     0
176
     1
290
     0
176
     1
290
     0
176
     1
290
     0
176
     1
290
     0
176
     1
 90
       50
176
     1
 40
0.0
176
     1
 40
1.0
176
     1
 90
        0
176
     1
 62
    18
420
        0
176
     1
 90
       50
176
     1
 90
        3
176
     1
 62
     5
420
      255
176
     1
290
     0
176
     1
 90
       50
176
     1
 90
       50
176
     1
 90
       50
176
     1
290
     0
176
     1
 90
       50
176
     1
 62
   256
176
     0
 40
1.0
176
     0
 90
        2
176
     1
  1
strokes_ogs.tif
176
     1
290
     0
176
     1
 40
1.0
176
     1
 40
1.0
176
     1
  0
VISUALSTYLE
  5
9BF
102
{ACAD_REACTORS
330
9AE
102
}
330
9AE
100
AcDbVisualStyle
  2
Shades of Gray
 70
    23
177
     3
291
     0
 70
    58
 90
        2
176
     1
 90
        2
176
     1
 90
        3
176
     1
 90
        0
176
     1
 40
0.6
176
     1
 40
30.0
176
     1
 62
     7
420
 16777215
176
     1
 90
        2
176
     1
 90
        2
176
     1
 62
     7
176
     1
 62
     7
176
     1
 90
        1
176
     1
 90
        1
176
     1
 40
40.0
176
     1
 90
        8
176
     1
 62
     7
176
     1
 40
1.0
176
     1
 90
        1
176
     1
 90
        6
176
     1
 90
        2
176
     1
 62
     7
176
     1
 90
        3
176
     1
 90
        0
176
     1
 90
        0
176
     1
290
     0
176
     1
 90
        1
176
     1
 40
0.0
176
     1
 90
        0
176
     1
290
     0
176
     1
290
     1
176
     1
290
     1
176
     1
290
     0
176
     1
290
     0
176
     1
290
     0
176
     1
290
     0
176
     1
290
     0
176
     1
290
     0
176
     1
 90
       50
176
     1
 40
0.0
176
     1
 40
1.0
176
     1
 90
        0
176
     1
 62
    18
420
        0
176
     1
 90
       50
176
     1
 90
        3
176
     1
 62
     5
420
      255
176
     1
290
     0
176
     1
 90
       50
176
     1
 90
       50
176
     1
 90
       50
176
     1
290
     0
176
     1
 90
       50
176
     1
 62
   256
176
     0
 40
1.0
176
     0
 90
        2
176
     1
  1
strokes_ogs.tif
176
     1
290
     0
176
     1
 40
1.0
176
     1
 40
1.0
176
     1
  0
VISUALSTYLE
  5
9C0
102
{ACAD_REACTORS
330
9AE
102
}
330
9AE
100
AcDbVisualStyle
  2
Sketchy
 70
    24
177
     3
291
     0
 70
    58
 90
        1
176
     1
 90
        2
176
     1
 90
        2
176
     1
 90
        0
176
     1
 40
0.6
176
     1
 40
30.0
176
     1
 62
     7
420
 16777215
176
     1
 90
        2
176
     1
 90
        2
176
     1
 62
     7
176
     1
 62
     7
176
     1
 90
        1
176
     1
 90
        1
176
     1
 40
40.0
176
     1
 90
       11
176
     1
 62
     7
176
     1
 40
1.0
176
     1
 90
        1
176
     1
 90
        6
176
     1
 90
        2
176
     1
 62
     7
176
     1
 90
        6
176
     1
 90
        0
176
     1
 90
        0
176
     1
290
     0
176
     1
 90
        1
176
     1
 40
0.0
176
     1
 90
        0
176
     1
290
     0
176
     1
290
     1
176
     1
290
     1
176
     1
290
     0
176
     1
290
     0
176
     1
290
     0
176
     1
290
     0
176
     1
290
     0
176
     1
290
     0
176
     1
 90
       50
176
     1
 40
0.0
176
     1
 40
1.0
176
     1
 90
        0
176
     1
 62
    18
420
        0
176
     1
 90
       50
176
     1
 90
        3
176
     1
 62
     5
420
      255
176
     1
290
     0
176
     1
 90
       50
176
     1
 90
       50
176
     1
 90
       50
176
     1
290
     0
176
     1
 90
       50
176
     1
 62
   256
176
     0
 40
1.0
176
     0
 90
        2
176
     1
  1
strokes_ogs.tif
176
     1
290
     0
176
     1
 40
1.0
176
     1
 40
1.0
176
     1
  0
VISUALSTYLE
  5
9BB
102
{ACAD_REACTORS
330
9AE
102
}
330
9AE
100
AcDbVisualStyle
  2
Thicken
 70
    13
177
     3
291
     1
 70
    58
 90
        2
176
     1
 90
        2
176
     1
 90
        0
176
     1
 90
        0
176
     1
 40
0.6
176
     1
 40
30.0
176
     1
 62
     7
420
 16777215
176
     1
 90
        1
176
     1
 90
        4
176
     1
 62
     7
176
     1
 62
   257
176
     1
 90
        1
176
     1
 90
        1
176
     1
 40
1.0
176
     1
 90
       12
176
     1
 62
     7
176
     1
 40
1.0
176
     1
 90
        1
176
     1
 90
        6
176
     1
 90
        2
176
     1
 62
     7
176
     1
 90
        5
176
     1
 90
        0
176
     1
 90
        0
176
     1
290
     0
176
     1
 90
        1
176
     1
 40
0.0
176
     1
 90
        0
176
     1
290
     0
176
     1
290
     1
176
     1
290
     1
176
     1
290
     0
176
     1
290
     0
176
     1
290
     0
176
     1
290
     0
176
     1
290
     0
176
     1
290
     0
176
     1
 90
       50
176
     1
 40
0.0
176
     1
 40
1.0
176
     1
 90
        0
176
     1
 62
    18
420
        0
176
     1
 90
       50
176
     1
 90
        3
176
     1
 62
     5
420
      255
176
     1
290
     0
176
     1
 90
       50
176
     1
 90
       50
176
     1
 90
       50
176
     1
290
     0
176
     1
 90
       50
176
     1
 62
   256
176
     0
 40
1.0
176
     0
 90
        2
176
     1
  1
strokes_ogs.tif
176
     1
290
     0
176
     1
 40
1.0
176
     1
 40
1.0
176
     1
  0
VISUALSTYLE
  5
9B5
102
{ACAD_REACTORS
330
9AE
102
}
330
9AE
100
AcDbVisualStyle
  2
Wireframe
 70
     5
177
     3
291
     0
 70
    58
 90
        0
176
     1
 90
        2
176
     1
 90
        0
176
     1
 90
        0
176
     1
 40
0.6
176
     1
 40
30.0
176
     1
 62
     7
420
 16777215
176
     1
 90
        1
176
     1
 90
        4
176
     1
 62
     7
176
     1
 62
   257
176
     1
 90
        1
176
     1
 90
        1
176
     1
 40
1.0
176
     1
 90
        0
176
     1
 62
   257
176
     1
 40
1.0
176
     1
 90
        1
176
     1
 90
        6
176
     1
 90
        2
176
     1
 62
     7
176
     1
 90
        3
176
     1
 90
        0
176
     1
 90
        0
176
     1
290
     0
176
     1
 90
        1
176
     1
 40
0.0
176
     1
 90
        0
176
     1
290
     0
176
     1
290
     1
176
     1
290
     1
176
     1
290
     0
176
     1
290
     0
176
     1
290
     0
176
     1
290
     0
176
     1
290
     0
176
     1
290
     0
176
     1
 90
       50
176
     1
 40
0.0
176
     1
 40
1.0
176
     1
 90
        0
176
     1
 62
    18
420
        0
176
     1
 90
       50
176
     1
 90
        3
176
     1
 62
     5
420
      255
176
     1
290
     0
176
     1
 90
       50
176
     1
 90
       50
176
     1
 90
       50
176
     1
290
     0
176
     1
 90
       50
176
     1
 62
   256
176
     0
 40
1.0
176
     0
 90
        2
176
     1
  1
strokes_ogs.tif
176
     1
290
     0
176
     1
 40
1.0
176
     1
 40
1.0
176
     1
  0
VISUALSTYLE
  5
9C1
102
{ACAD_REACTORS
330
9AE
102
}
330
9AE
100
AcDbVisualStyle
  2
X-Ray
 70
    25
177
     3
291
     0
 70
    58
 90
        2
176
     1
 90
        2
176
     1
 90
        1
176
     1
 90
        1
176
     1
 40
0.5
176
     1
 40
30.0
176
     1
 62
     7
420
 16777215
176
     1
 90
        1
176
     1
 90
        0
176
     1
 62
     7
176
     1
 62
   257
176
     1
 90
        1
176
     1
 90
        1
176
     1
 40
1.0
176
     1
 90
        8
176
     1
 62
     7
176
     1
 40
1.0
176
     1
 90
        1
176
     1
 90
        6
176
     1
 90
        2
176
     1
 62
     7
176
     1
 90
        3
176
     1
 90
        0
176
     1
 90
        0
176
     1
290
     0
176
     1
 90
       13
176
     1
 40
0.0
176
     1
 90
        0
176
     1
290
     0
176
     1
290
     1
176
     1
290
     1
176
     1
290
     0
176
     1
290
     0
176
     1
290
     0
176
     1
290
     0
176
     1
290
     0
176
     1
290
     0
176
     1
 90
       50
176
     1
 40
0.0
176
     1
 40
1.0
176
     1
 90
        0
176
     1
 62
    18
420
        0
176
     1
 90
       50
176
     1
 90
        3
176
     1
 62
     5
420
      255
176
     1
290
     0
176
     1
 90
       50
176
     1
 90
       50
176
     1
 90
       50
176
     1
290
     0
176
     1
 90
       50
176
     1
 62
   256
176
     0
 40
1.0
176
     0
 90
        2
176
     1
  1
strokes_ogs.tif
176
     1
290
     0
176
     1
 40
1.0
176
     1
 40
1.0
176
     1
  0
DICTIONARYVAR
  5
9DA
102
{ACAD_REACTORS
330
9D4
102
}
330
9D4
100
DictionaryVariables
280
     0
  1
1:1
  0
DICTIONARYVAR
  5
9D6
102
{ACAD_REACTORS
330
9D4
102
}
330
9D4
100
DictionaryVariables
280
     0
  1
STANDARD
  0
DICTIONARYVAR
  5
9D5
102
{ACAD_REACTORS
330
9D4
102
}
330
9D4
100
DictionaryVariables
280
     0
  1
STANDARD
  0
DICTIONARYVAR
  5
9D7
102
{ACAD_REACTORS
330
9D4
102
}
330
9D4
100
DictionaryVariables
280
     0
  1
Metric50
  0
DICTIONARYVAR
  5
9D8
102
{ACAD_REACTORS
330
9D4
102
}
330
9D4
100
DictionaryVariables
280
     0
  1
Metric50
  0
DICTIONARYVAR
  5
A61
102
{ACAD_REACTORS
330
9D4
102
}
330
9D4
100
DictionaryVariables
280
     0
  1
BYLAYER
  0
DICTIONARYVAR
  5
A60
102
{ACAD_REACTORS
330
9D4
102
}
330
9D4
100
DictionaryVariables
280
     0
  1
ByLayer
  0
DICTIONARYVAR
  5
9DC
102
{ACAD_REACTORS
330
9D4
102
}
330
9D4
100
DictionaryVariables
280
     0
  1
2
  0
DICTIONARYVAR
  5
9DD
102
{ACAD_REACTORS
330
9D4
102
}
330
9D4
100
DictionaryVariables
280
     0
  1
15
  0
DICTIONARYVAR
  5
9DB
102
{ACAD_REACTORS
330
9D4
102
}
330
9D4
100
DictionaryVariables
280
     0
  1
0
  0
DICTIONARYVAR
  5
9D9
102
{ACAD_REACTORS
330
9D4
102
}
330
9D4
100
DictionaryVariables
280
     0
  1
0
  0
DICTIONARY
  5
BC2
102
{ACAD_REACTORS
330
BC1
102
}
330
BC1
100
AcDbDictionary
280
     1
281
     1
  0
DICTIONARY
  5
BBB
330
9CF
100
AcDbDictionary
280
     1
281
     1
  3
ACAD_XREC_ROUNDTRIP
360
BBC
  0
DICTIONARY
  5
99F
330
99E
100
AcDbDictionary
280
     1
281
     1
  3
BUMPTILE
360
9A1
  3
DIFFUSETILE
360
9A0
  3
OPACITYTILE
360
9A4
  3
REFLECTIONTILE
360
9A3
  3
REFRACTIONTILE
360
9A5
  3
SPECULARTILE
360
9A2
  0
DICTIONARY
  5
997
330
996
100
AcDbDictionary
280
     1
281
     1
  3
BUMPTILE
360
999
  3
DIFFUSETILE
360
998
  3
OPACITYTILE
360
99C
  3
REFLECTIONTILE
360
99B
  3
REFRACTIONTILE
360
99D
  3
SPECULARTILE
360
99A
  0
DICTIONARY
  5
9A7
330
9A6
100
AcDbDictionary
280
     1
281
     1
  3
BUMPTILE
360
9A9
  3
DIFFUSETILE
360
9A8
  3
OPACITYTILE
360
9AC
  3
REFLECTIONTILE
360
9AB
  3
REFRACTIONTILE
360
9AD
  3
SPECULARTILE
360
9AA
  0
DICTIONARY
  5
BB9
330
9CD
100
AcDbDictionary
280
     1
281
     1
  3
ACAD_XREC_ROUNDTRIP
360
BBA
  0
DICTIONARY
  5
BC3
330
9C9
100
AcDbDictionary
280
     1
281
     1
  3
ACAD_ROUNDTRIP_2008_TABLESTYLE_CELLSTYLEMAP
360
BC4
  0
XRECORD
  5
BBC
102
{ACAD_REACTORS
330
BBB
102
}
330
BBB
100
AcDbXrecord
280
     1
102
DISPLAYNAME
  1
Metric50
102
FLAGS
 90
        0
  0
XRECORD
  5
9A1
102
{ACAD_REACTORS
330
99F
102
}
330
99F
100
AcDbXrecord
280
     1
270
     1
271
     1
  0
XRECORD
  5
9A0
102
{ACAD_REACTORS
330
99F
102
}
330
99F
100
AcDbXrecord
280
     1
270
     1
271
     1
  0
XRECORD
  5
9A4
102
{ACAD_REACTORS
330
99F
102
}
330
99F
100
AcDbXrecord
280
     1
270
     1
271
     1
  0
XRECORD
  5
9A3
102
{ACAD_REACTORS
330
99F
102
}
330
99F
100
AcDbXrecord
280
     1
270
     1
271
     1
  0
XRECORD
  5
9A5
102
{ACAD_REACTORS
330
99F
102
}
330
99F
100
AcDbXrecord
280
     1
270
     1
271
     1
  0
XRECORD
  5
9A2
102
{ACAD_REACTORS
330
99F
102
}
330
99F
100
AcDbXrecord
280
     1
270
     1
271
     1
  0
XRECORD
  5
999
102
{ACAD_REACTORS
330
997
102
}
330
997
100
AcDbXrecord
280
     1
270
     1
271
     1
  0
XRECORD
  5
998
102
{ACAD_REACTORS
330
997
102
}
330
997
100
AcDbXrecord
280
     1
270
     1
271
     1
  0
XRECORD
  5
99C
102
{ACAD_REACTORS
330
997
102
}
330
997
100
AcDbXrecord
280
     1
270
     1
271
     1
  0
XRECORD
  5
99B
102
{ACAD_REACTORS
330
997
102
}
330
997
100
AcDbXrecord
280
     1
270
     1
271
     1
  0
XRECORD
  5
99D
102
{ACAD_REACTORS
330
997
102
}
330
997
100
AcDbXrecord
280
     1
270
     1
271
     1
  0
XRECORD
  5
99A
102
{ACAD_REACTORS
330
997
102
}
330
997
100
AcDbXrecord
280
     1
270
     1
271
     1
  0
XRECORD
  5
9A9
102
{ACAD_REACTORS
330
9A7
102
}
330
9A7
100
AcDbXrecord
280
     1
270
     1
271
     1
  0
XRECORD
  5
9A8
102
{ACAD_REACTORS
330
9A7
102
}
330
9A7
100
AcDbXrecord
280
     1
270
     1
271
     1
  0
XRECORD
  5
9AC
102
{ACAD_REACTORS
330
9A7
102
}
330
9A7
100
AcDbXrecord
280
     1
270
     1
271
     1
  0
XRECORD
  5
9AB
102
{ACAD_REACTORS
330
9A7
102
}
330
9A7
100
AcDbXrecord
280
     1
270
     1
271
     1
  0
XRECORD
  5
9AD
102
{ACAD_REACTORS
330
9A7
102
}
330
9A7
100
AcDbXrecord
280
     1
270
     1
271
     1
  0
XRECORD
  5
9AA
102
{ACAD_REACTORS
330
9A7
102
}
330
9A7
100
AcDbXrecord
280
     1
270
     1
271
     1
  0
XRECORD
  5
BBA
102
{ACAD_REACTORS
330
BB9
102
}
330
BB9
100
AcDbXrecord
280
     1
102
DISPLAYNAME
  1
Metric50
102
FLAGS
 90
        0
  0
CELLSTYLEMAP
  5
BC4
102
{ACAD_REACTORS
330
BC3
102
}
330
BC3
100
AcDbCellStyleMap
 90
        3
300
CELLSTYLE
  1
TABLEFORMAT_BEGIN
 90
        5
170
     1
 91
        0
 92
    32768
 62
   257
 93
        1
300
CONTENTFORMAT
  1
CONTENTFORMAT_BEGIN
 90
        0
 91
        0
 92
      512
 93
        0
300

 40
0.0
140
1.0
 94
        5
 62
     0
340
11
144
6.0
309
CONTENTFORMAT_END
171
     1
301
MARGIN
  1
CELLMARGIN_BEGIN
 40
1.5
 40
1.5
 40
1.5
 40
1.5
 40
4.5
 40
4.5
309
CELLMARGIN_END
 94
        6
 95
        1
302
GRIDFORMAT
  1
GRIDFORMAT_BEGIN
 90
        0
 91
        1
 62
     0
 92
       -2
340
0
 93
        0
 40
1.125
309
GRIDFORMAT_END
 95
        2
302
GRIDFORMAT
  1
GRIDFORMAT_BEGIN
 90
        0
 91
        1
 62
     0
 92
       -2
340
0
 93
        0
 40
1.125
309
GRIDFORMAT_END
 95
        4
302
GRIDFORMAT
  1
GRIDFORMAT_BEGIN
 90
        0
 91
        1
 62
     0
 92
       -2
340
0
 93
        0
 40
1.125
309
GRIDFORMAT_END
 95
        8
302
GRIDFORMAT
  1
GRIDFORMAT_BEGIN
 90
        0
 91
        1
 62
     0
 92
       -2
340
0
 93
        0
 40
1.125
309
GRIDFORMAT_END
 95
       16
302
GRIDFORMAT
  1
GRIDFORMAT_BEGIN
 90
        0
 91
        1
 62
     0
 92
       -2
340
0
 93
        0
 40
1.125
309
GRIDFORMAT_END
 95
       32
302
GRIDFORMAT
  1
GRIDFORMAT_BEGIN
 90
        0
 91
        1
 62
     0
 92
       -2
340
0
 93
        0
 40
1.125
309
GRIDFORMAT_END
309
TABLEFORMAT_END
  1
CELLSTYLE_BEGIN
 90
        1
 91
        1
300
_TITLE
309
CELLSTYLE_END
300
CELLSTYLE
  1
TABLEFORMAT_BEGIN
 90
        5
170
     1
 91
        0
 92
        0
 62
   257
 93
        1
300
CONTENTFORMAT
  1
CONTENTFORMAT_BEGIN
 90
        0
 91
        0
 92
      512
 93
        0
300

 40
0.0
140
1.0
 94
        5
 62
     0
340
11
144
4.5
309
CONTENTFORMAT_END
171
     1
301
MARGIN
  1
CELLMARGIN_BEGIN
 40
1.5
 40
1.5
 40
1.5
 40
1.5
 40
4.5
 40
4.5
309
CELLMARGIN_END
 94
        6
 95
        1
302
GRIDFORMAT
  1
GRIDFORMAT_BEGIN
 90
        0
 91
        1
 62
     0
 92
       -2
340
0
 93
        0
 40
1.125
309
GRIDFORMAT_END
 95
        2
302
GRIDFORMAT
  1
GRIDFORMAT_BEGIN
 90
        0
 91
        1
 62
     0
 92
       -2
340
0
 93
        0
 40
1.125
309
GRIDFORMAT_END
 95
        4
302
GRIDFORMAT
  1
GRIDFORMAT_BEGIN
 90
        0
 91
        1
 62
     0
 92
       -2
340
0
 93
        0
 40
1.125
309
GRIDFORMAT_END
 95
        8
302
GRIDFORMAT
  1
GRIDFORMAT_BEGIN
 90
        0
 91
        1
 62
     0
 92
       -2
340
0
 93
        0
 40
1.125
309
GRIDFORMAT_END
 95
       16
302
GRIDFORMAT
  1
GRIDFORMAT_BEGIN
 90
        0
 91
        1
 62
     0
 92
       -2
340
0
 93
        0
 40
1.125
309
GRIDFORMAT_END
 95
       32
302
GRIDFORMAT
  1
GRIDFORMAT_BEGIN
 90
        0
 91
        1
 62
     0
 92
       -2
340
0
 93
        0
 40
1.125
309
GRIDFORMAT_END
309
TABLEFORMAT_END
  1
CELLSTYLE_BEGIN
 90
        2
 91
        1
300
_HEADER
309
CELLSTYLE_END
300
CELLSTYLE
  1
TABLEFORMAT_BEGIN
 90
        5
170
     1
 91
        0
 92
        0
 62
   257
 93
        1
300
CONTENTFORMAT
  1
CONTENTFORMAT_BEGIN
 90
        0
 91
        0
 92
      512
 93
        0
300

 40
0.0
140
1.0
 94
        2
 62
     0
340
11
144
4.5
309
CONTENTFORMAT_END
171
     1
301
MARGIN
  1
CELLMARGIN_BEGIN
 40
1.5
 40
1.5
 40
1.5
 40
1.5
 40
4.5
 40
4.5
309
CELLMARGIN_END
 94
        6
 95
        1
302
GRIDFORMAT
  1
GRIDFORMAT_BEGIN
 90
        0
 91
        1
 62
     0
 92
       -2
340
0
 93
        0
 40
1.125
309
GRIDFORMAT_END
 95
        2
302
GRIDFORMAT
  1
GRIDFORMAT_BEGIN
 90
        0
 91
        1
 62
     0
 92
       -2
340
0
 93
        0
 40
1.125
309
GRIDFORMAT_END
 95
        4
302
GRIDFORMAT
  1
GRIDFORMAT_BEGIN
 90
        0
 91
        1
 62
     0
 92
       -2
340
0
 93
        0
 40
1.125
309
GRIDFORMAT_END
 95
        8
302
GRIDFORMAT
  1
GRIDFORMAT_BEGIN
 90
        0
 91
        1
 62
     0
 92
       -2
340
0
 93
        0
 40
1.125
309
GRIDFORMAT_END
 95
       16
302
GRIDFORMAT
  1
GRIDFORMAT_BEGIN
 90
        0
 91
        1
 62
     0
 92
       -2
340
0
 93
        0
 40
1.125
309
GRIDFORMAT_END
 95
       32
302
GRIDFORMAT
  1
GRIDFORMAT_BEGIN
 90
        0
 91
        1
 62
     0
 92
       -2
340
0
 93
        0
 40
1.125
309
GRIDFORMAT_END
309
TABLEFORMAT_END
  1
CELLSTYLE_BEGIN
 90
        3
 91
        2
300
_DATA
309
CELLSTYLE_END
  0
ENDSEC
  0
SECTION
  2
ACDSDATA
 70
     2
 71
     8
  0
ACDSSCHEMA
 90
        0
  1
AcDb_Thumbnail_Schema
  2
AcDbDs::ID
280
    10
 91
        8
  2
Thumbnail_Data
280
    15
 91
        0
101
ACDSRECORD
 95
        0
 90
        1
  2
AcDbDs::TreatedAsObjectData
280
     1
291
     1
101
ACDSRECORD
 95
        0
 90
        2
  2
AcDbDs::Legacy
280
     1
291
     1
101
ACDSRECORD
  1
AcDbDs::ID
 90
        3
  2
AcDs:Indexable
280
     1
291
     1
101
ACDSRECORD
  1
AcDbDs::ID
 90
        4
  2
AcDbDs::HandleAttribute
280
     7
282
     1
  0
ACDSSCHEMA
 90
        1
  1
AcDbDs::TreatedAsObjectDataSchema
  2
AcDbDs::TreatedAsObjectData
280
     1
 91
        0
  0
ACDSSCHEMA
 90
        2
  1
AcDbDs::LegacySchema
  2
AcDbDs::Legacy
280
     1
 91
        0
  0
ACDSSCHEMA
 90
        3
  1
AcDbDs::IndexedPropertySchema
  2
AcDs:Indexable
280
     1
 91
        0
  0
ACDSSCHEMA
 90
        4
  1
AcDbDs::HandleAttributeSchema
  2
AcDbDs::HandleAttribute
280
     7
 91
        1
284
     1
  0
ACDSRECORD
 90
        0
  2
AcDbDs::ID
280
    10
320
22
  2
Thumbnail_Data
280
    15
 94
     1036
310
89504E470D0A1A0A0000000D4948445200000100000000680803000000297CDED700000300504C5445212830FFFFFF2128300000000000000000000000000000000000000000000000000000330000660000990000CC0000FF0033000033330033660033990033CC0033FF0066000066330066660066990066CC0066FF0099
310
000099330099660099990099CC0099FF00CC0000CC3300CC6600CC9900CCCC00CCFF00FF0000FF3300FF6600FF9900FFCC00FFFF3300003300333300663300993300CC3300FF3333003333333333663333993333CC3333FF3366003366333366663366993366CC3366FF3399003399333399663399993399CC3399FF33CC00
310
33CC3333CC6633CC9933CCCC33CCFF33FF0033FF3333FF6633FF9933FFCC33FFFF6600006600336600666600996600CC6600FF6633006633336633666633996633CC6633FF6666006666336666666666996666CC6666FF6699006699336699666699996699CC6699FF66CC0066CC3366CC6666CC9966CCCC66CCFF66FF0066
310
FF3366FF6666FF9966FFCC66FFFF9900009900339900669900999900CC9900FF9933009933339933669933999933CC9933FF9966009966339966669966999966CC9966FF9999009999339999669999999999CC9999FF99CC0099CC3399CC6699CC9999CCCC99CCFF99FF0099FF3399FF6699FF9999FFCC99FFFFCC0000CC00
310
33CC0066CC0099CC00CCCC00FFCC3300CC3333CC3366CC3399CC33CCCC33FFCC6600CC6633CC6666CC6699CC66CCCC66FFCC9900CC9933CC9966CC9999CC99CCCC99FFCCCC00CCCC33CCCC66CCCC99CCCCCCCCCCFFCCFF00CCFF33CCFF66CCFF99CCFFCCCCFFFFFF0000FF0033FF0066FF0099FF00CCFF00FFFF3300FF3333
310
FF3366FF3399FF33CCFF33FFFF6600FF6633FF6666FF6699FF66CCFF66FFFF9900FF9933FF9966FF9999FF99CCFF99FFFFCC00FFCC33FFCC66FFCC99FFCCCCFFCCFFFFFF00FFFF33FFFF66FFFF99FFFFCCFFFFFF0000000D0D0D1A1A1A2828283535354343435050505D5D5D6B6B6B787878868686939393A1A1A1AEAEAEBB
310
BBBBC9C9C9D6D6D6E4E4E4F1F1F1FFFFFF0000000000000000000000000000000000000000000000000000000000002E4550F1000000BE4944415478DAEDD6410AC3201005D09C6476BD61AF3EFB42316D3426B4500AC6F736614402F31575590000000000000000000000801F8997D9FBCFCCB903889C7507DC9F04200001
310
0860AE637FA2009A86AB6BFF9201EC1739E256AAF6DEEF0510BD1F0CF458DC2CF2B6AC57FC248038F8C15A8FF4BA7DB7D836DC06F25100314C00DB964AF955006568D06362BF037AD5417D911D509DF3D9A9BA7569EF6CCA90B7401675B5F692EDC07EA8336528597D00000000000000000080FF7B002C16D15EB2CDE65D00
310
00000049454E44AE4260820049454E44AE426082
  0
ENDSEC
  0
EOF
